  0
SECTION
  2
HEADER
  9
$ACADVER
  1
AC1027
  9
$ACADMAINTVER
 70
   105
  9
$DWGCODEPAGE
  3
ANSI_1252
  9
$LASTSAVEDBY
  1
guzb562
  9
$REQUIREDVERSIONS
160
                 0
  9
$INSBASE
 10
0.0
 20
0.0
 30
0.0
  9
$EXTMIN
 10
996.9587284530618
 20
433.4765386547916
 30
0.0
  9
$EXTMAX
 10
1424.288708933703
 20
678.0958697738018
 30
2.0
  9
$LIMMIN
 10
0.0
 20
0.0
  9
$LIMMAX
 10
410.0
 20
287.0
  9
$ORTHOMODE
 70
     1
  9
$REGENMODE
 70
     1
  9
$FILLMODE
 70
     1
  9
$QTEXTMODE
 70
     0
  9
$MIRRTEXT
 70
     0
  9
$LTSCALE
 40
5.0
  9
$ATTMODE
 70
     1
  9
$TEXTSIZE
 40
3.5
  9
$TRACEWID
 40
1.0
  9
$TEXTSTYLE
  7
STANDARD
  9
$CLAYER
  8
AM_7 (Mittellinie)
  9
$CELTYPE
  6
AM_ISO08W050x2
  9
$CECOLOR
 62
   256
  9
$CELTSCALE
 40
1.0
  9
$DISPSILH
 70
     0
  9
$DIMSCALE
 40
1.0
  9
$DIMASZ
 40
5.0
  9
$DIMEXO
 40
1.0
  9
$DIMDLI
 40
10.0
  9
$DIMRND
 40
0.0
  9
$DIMDLE
 40
0.0
  9
$DIMEXE
 40
1.0
  9
$DIMTP
 40
0.1
  9
$DIMTM
 40
0.1
  9
$DIMTXT
 40
5.0
  9
$DIMCEN
 40
0.0
  9
$DIMTSZ
 40
0.0
  9
$DIMTOL
 70
     0
  9
$DIMLIM
 70
     0
  9
$DIMTIH
 70
     0
  9
$DIMTOH
 70
     0
  9
$DIMSE1
 70
     0
  9
$DIMSE2
 70
     0
  9
$DIMTAD
 70
     1
  9
$DIMZIN
 70
     8
  9
$DIMBLK
  1

  9
$DIMASO
 70
     1
  9
$DIMSHO
 70
     1
  9
$DIMPOST
  1

  9
$DIMAPOST
  1
"
  9
$DIMALT
 70
     0
  9
$DIMALTD
 70
     2
  9
$DIMALTF
 40
0.0393701
  9
$DIMLFAC
 40
1.0
  9
$DIMTOFL
 70
     1
  9
$DIMTVP
 40
0.0
  9
$DIMTIX
 70
     0
  9
$DIMSOXD
 70
     0
  9
$DIMSAH
 70
     0
  9
$DIMBLK1
  1

  9
$DIMBLK2
  1

  9
$DIMSTYLE
  2
AM_DIN
  9
$DIMCLRD
 70
   256
  9
$DIMCLRE
 70
   256
  9
$DIMCLRT
 70
     2
  9
$DIMTFAC
 40
0.71
  9
$DIMGAP
 40
1.5
  9
$DIMJUST
 70
     0
  9
$DIMSD1
 70
     0
  9
$DIMSD2
 70
     0
  9
$DIMTOLJ
 70
     0
  9
$DIMTZIN
 70
     8
  9
$DIMALTZ
 70
     0
  9
$DIMALTTZ
 70
     0
  9
$DIMUPT
 70
     0
  9
$DIMDEC
 70
     2
  9
$DIMTDEC
 70
     2
  9
$DIMALTU
 70
     2
  9
$DIMALTTD
 70
     2
  9
$DIMTXSTY
  7
STANDARD
  9
$DIMAUNIT
 70
     0
  9
$DIMADEC
 70
     0
  9
$DIMALTRND
 40
0.0
  9
$DIMAZIN
 70
     2
  9
$DIMDSEP
 70
    46
  9
$DIMATFIT
 70
     3
  9
$DIMFRAC
 70
     0
  9
$DIMLDRBLK
  1

  9
$DIMLUNIT
 70
     2
  9
$DIMLWD
 70
    -1
  9
$DIMLWE
 70
    -1
  9
$DIMTMOVE
 70
     0
  9
$DIMFXL
 40
1.0
  9
$DIMFXLON
 70
     0
  9
$DIMJOGANG
 40
0.7853981633974483
  9
$DIMTFILL
 70
     0
  9
$DIMTFILLCLR
 70
     0
  9
$DIMARCSYM
 70
     1
  9
$DIMLTYPE
  6

  9
$DIMLTEX1
  6

  9
$DIMLTEX2
  6

  9
$DIMTXTDIRECTION
 70
     0
  9
$LUNITS
 70
     2
  9
$LUPREC
 70
     2
  9
$SKETCHINC
 40
1.0
  9
$FILLETRAD
 40
50.0
  9
$AUNITS
 70
     0
  9
$AUPREC
 70
     0
  9
$MENU
  1
ACAD
  9
$ELEVATION
 40
0.0
  9
$PELEVATION
 40
0.0
  9
$THICKNESS
 40
0.0
  9
$LIMCHECK
 70
     0
  9
$CHAMFERA
 40
50.0
  9
$CHAMFERB
 40
50.0
  9
$CHAMFERC
 40
0.0
  9
$CHAMFERD
 40
0.0
  9
$SKPOLY
 70
     0
  9
$TDCREATE
 40
2448793.749559954
  9
$TDUCREATE
 40
2448793.666226620
  9
$TDUPDATE
 40
2458008.428620695
  9
$TDUUPDATE
 40
2458008.345287361
  9
$TDINDWG
 40
0.0692370833
  9
$TDUSRTIMER
 40
0.0692367245
  9
$USRTIMER
 70
     1
  9
$ANGBASE
 50
0.0
  9
$ANGDIR
 70
     0
  9
$PDMODE
 70
     0
  9
$PDSIZE
 40
0.0
  9
$PLINEWID
 40
0.0
  9
$SPLFRAME
 70
     0
  9
$SPLINETYPE
 70
     6
  9
$SPLINESEGS
 70
     8
  9
$HANDSEED
  5
157A
  9
$SURFTAB1
 70
     6
  9
$SURFTAB2
 70
     6
  9
$SURFTYPE
 70
     6
  9
$SURFU
 70
     6
  9
$SURFV
 70
     6
  9
$UCSBASE
  2

  9
$UCSNAME
  2

  9
$UCSORG
 10
0.0
 20
0.0
 30
0.0
  9
$UCSXDIR
 10
1.0
 20
0.0
 30
0.0
  9
$UCSYDIR
 10
0.0
 20
1.0
 30
0.0
  9
$UCSORTHOREF
  2

  9
$UCSORTHOVIEW
 70
     0
  9
$UCSORGTOP
 10
0.0
 20
0.0
 30
0.0
  9
$UCSORGBOTTOM
 10
0.0
 20
0.0
 30
0.0
  9
$UCSORGLEFT
 10
0.0
 20
0.0
 30
0.0
  9
$UCSORGRIGHT
 10
0.0
 20
0.0
 30
0.0
  9
$UCSORGFRONT
 10
0.0
 20
0.0
 30
0.0
  9
$UCSORGBACK
 10
0.0
 20
0.0
 30
0.0
  9
$PUCSBASE
  2

  9
$PUCSNAME
  2

  9
$PUCSORG
 10
0.0
 20
0.0
 30
0.0
  9
$PUCSXDIR
 10
1.0
 20
0.0
 30
0.0
  9
$PUCSYDIR
 10
0.0
 20
1.0
 30
0.0
  9
$PUCSORTHOREF
  2

  9
$PUCSORTHOVIEW
 70
     0
  9
$PUCSORGTOP
 10
0.0
 20
0.0
 30
0.0
  9
$PUCSORGBOTTOM
 10
0.0
 20
0.0
 30
0.0
  9
$PUCSORGLEFT
 10
0.0
 20
0.0
 30
0.0
  9
$PUCSORGRIGHT
 10
0.0
 20
0.0
 30
0.0
  9
$PUCSORGFRONT
 10
0.0
 20
0.0
 30
0.0
  9
$PUCSORGBACK
 10
0.0
 20
0.0
 30
0.0
  9
$USERI1
 70
     0
  9
$USERI2
 70
     0
  9
$USERI3
 70
     0
  9
$USERI4
 70
     0
  9
$USERI5
 70
     0
  9
$USERR1
 40
0.0
  9
$USERR2
 40
0.0
  9
$USERR3
 40
0.0
  9
$USERR4
 40
0.0
  9
$USERR5
 40
0.0
  9
$WORLDVIEW
 70
     1
  9
$SHADEDGE
 70
     3
  9
$SHADEDIF
 70
    70
  9
$TILEMODE
 70
     1
  9
$MAXACTVP
 70
    64
  9
$PINSBASE
 10
0.0
 20
0.0
 30
0.0
  9
$PLIMCHECK
 70
     0
  9
$PEXTMIN
 10
1.000000000000000E+20
 20
1.000000000000000E+20
 30
1.000000000000000E+20
  9
$PEXTMAX
 10
-1.000000000000000E+20
 20
-1.000000000000000E+20
 30
-1.000000000000000E+20
  9
$PLIMMIN
 10
0.0
 20
0.0
  9
$PLIMMAX
 10
12.0
 20
9.0
  9
$UNITMODE
 70
     0
  9
$VISRETAIN
 70
     1
  9
$PLINEGEN
 70
     0
  9
$PSLTSCALE
 70
     1
  9
$TREEDEPTH
 70
  3020
  9
$CMLSTYLE
  2
Standard
  9
$CMLJUST
 70
     0
  9
$CMLSCALE
 40
1.0
  9
$PROXYGRAPHICS
 70
     1
  9
$MEASUREMENT
 70
     0
  9
$CELWEIGHT
370
    -1
  9
$ENDCAPS
280
     0
  9
$JOINSTYLE
280
     0
  9
$LWDISPLAY
290
     0
  9
$INSUNITS
 70
     0
  9
$HYPERLINKBASE
  1

  9
$STYLESHEET
  1
OASE.ctb
  9
$XEDIT
290
     1
  9
$CEPSNTYPE
380
     0
  9
$PSTYLEMODE
290
     1
  9
$FINGERPRINTGUID
  2
{E74C0268-0447-40E8-B293-A6F40CC0D2F7}
  9
$VERSIONGUID
  2
{9BBE2EAA-45CA-4B4E-8C83-671687F9531E}
  9
$EXTNAMES
290
     1
  9
$PSVPSCALE
 40
0.0
  9
$OLESTARTUP
290
     0
  9
$SORTENTS
280
   127
  9
$INDEXCTL
280
     0
  9
$HIDETEXT
280
     0
  9
$XCLIPFRAME
280
     0
  9
$HALOGAP
280
     0
  9
$OBSCOLOR
 70
   257
  9
$OBSLTYPE
280
     0
  9
$INTERSECTIONDISPLAY
280
     0
  9
$INTERSECTIONCOLOR
 70
   257
  9
$DIMASSOC
280
     2
  9
$PROJECTNAME
  1

  9
$CAMERADISPLAY
290
     0
  9
$LENSLENGTH
 40
50.0
  9
$CAMERAHEIGHT
 40
0.0
  9
$STEPSPERSEC
 40
2.0
  9
$STEPSIZE
 40
6.0
  9
$3DDWFPREC
 40
2.0
  9
$PSOLWIDTH
 40
0.25
  9
$PSOLHEIGHT
 40
4.0
  9
$LOFTANG1
 40
1.570796326794896
  9
$LOFTANG2
 40
1.570796326794896
  9
$LOFTMAG1
 40
0.0
  9
$LOFTMAG2
 40
0.0
  9
$LOFTPARAM
 70
     7
  9
$LOFTNORMALS
280
     1
  9
$LATITUDE
 40
37.795
  9
$LONGITUDE
 40
-122.394
  9
$NORTHDIRECTION
 40
0.0
  9
$TIMEZONE
 70
 -8000
  9
$LIGHTGLYPHDISPLAY
280
     1
  9
$TILEMODELIGHTSYNCH
280
     1
  9
$CMATERIAL
347
11
  9
$SOLIDHIST
280
     1
  9
$SHOWHIST
280
     1
  9
$DWFFRAME
280
     2
  9
$DGNFRAME
280
     0
  9
$REALWORLDSCALE
290
     1
  9
$INTERFERECOLOR
 62
     1
  9
$INTERFEREOBJVS
345
33
  9
$INTERFEREVPVS
346
11A2
  9
$CSHADOW
280
     0
  9
$SHADOWPLANELOCATION
 40
0.0
  0
ENDSEC
  0
SECTION
  2
CLASSES
  0
CLASS
  1
ACDBDICTIONARYWDFLT
  2
AcDbDictionaryWithDefault
  3
ObjectDBX Classes
 90
        0
 91
        1
280
     0
281
     0
  0
CLASS
  1
MATERIAL
  2
AcDbMaterial
  3
ObjectDBX Classes
 90
     1153
 91
        3
280
     0
281
     0
  0
CLASS
  1
VISUALSTYLE
  2
AcDbVisualStyle
  3
ObjectDBX Classes
 90
     4095
 91
       26
280
     0
281
     0
  0
CLASS
  1
SCALE
  2
AcDbScale
  3
ObjectDBX Classes
 90
     1153
 91
       33
280
     0
281
     0
  0
CLASS
  1
TABLESTYLE
  2
AcDbTableStyle
  3
ObjectDBX Classes
 90
     4095
 91
        1
280
     0
281
     0
  0
CLASS
  1
MLEADERSTYLE
  2
AcDbMLeaderStyle
  3
ACDB_MLEADERSTYLE_CLASS
 90
     4095
 91
        1
280
     0
281
     0
  0
CLASS
  1
AMGSETTINGSOBJ
  2
AmgSettingsObj
  3
"AcadM|Product Description: AutoCAD Mechanical|Company: Autodesk, Inc."
 90
     1024
 91
        2
280
     0
281
     0
  0
CLASS
  1
ACME_DOCUMENT
  2
AcMeDbDoc
  3
AcMeServices
 90
     1024
 91
        2
280
     0
281
     0
  0
CLASS
  1
ACMESCOPE
  2
AcMeScope
  3
AcMeServices
 90
     1024
 91
        1
280
     0
281
     0
  0
CLASS
  1
ACMECOMMANDHISTORY
  2
AcMeCommandHistory
  3
AcMeServices
 90
     1024
 91
        1
280
     0
281
     0
  0
CLASS
  1
ACIMSYSVARMAN
  2
AcImSysVarManager
  3
AcMeServices
 90
     1024
 91
        5
280
     0
281
     0
  0
CLASS
  1
ACIMINTSYSVAR
  2
AcImIntSysVar
  3
AcMeServices
 90
     1024
 91
       27
280
     0
281
     0
  0
CLASS
  1
ACMEDRAWINGMAN
  2
AcMeDrawingMan
  3
AcMeServices
 90
     1024
 91
        2
280
     0
281
     0
  0
CLASS
  1
ACMEVIEW
  2
AcMeView
  3
AcMeServices
 90
     1024
 91
        2
280
     0
281
     0
  0
CLASS
  1
ACDBENTITYCACHE
  2
AcMeEntityCache
  3
AcMeServices
 90
     1024
 91
        1
280
     0
281
     0
  0
CLASS
  1
GSMANAGER
  2
AcMeGSManager
  3
AcMeServices
 90
     1024
 91
        0
280
     0
281
     0
  0
CLASS
  1
AMDTINTERNALREACTOR
  2
AmdtInternalReactor
  3
AcMeServices
 90
     1024
 91
        1
280
     0
281
     0
  0
CLASS
  1
ACMESTATEMGR
  2
AcMeStateMgr
  3
AcMeServices
 90
     1024
 91
        1
280
     0
281
     0
  0
CLASS
  1
ACGREFMASTER
  2
AcGrefMaster
  3
AcAttribServices
 90
     1024
 91
        1
280
     0
281
     0
  0
CLASS
  1
AM_DRAWING_MGR
  2
AcDmDwgMgr
  3
AcMechDwgViewMgmt
 90
     1024
 91
        1
280
     0
281
     0
  0
CLASS
  1
AM_DWG_DOCUMENT
  2
AcDmDwgDocument
  3
AcMechDwgViewMgmt
 90
     1024
 91
        1
280
     0
281
     0
  0
CLASS
  1
AM_DWG_SHEET
  2
AcDmSheet
  3
AcMechDwgViewMgmt
 90
     1024
 91
        1
280
     0
281
     0
  0
CLASS
  1
AM_VIEWDIMPARMAP
  2
AcDmViewDimParMap
  3
AcMechDwgViewMgmt
 90
     1024
 91
        1
280
     0
281
     0
  0
CLASS
  1
ACIMREALSYSVAR
  2
AcImRealSysVar
  3
AcMeServices
 90
     1024
 91
        1
280
     0
281
     0
  0
CLASS
  1
AM_DWGMGR_NAME
  2
AcDmDwgMgrName
  3
AcMechDwgViewMgmt
 90
     1024
 91
        1
280
     0
281
     0
  0
CLASS
  1
ACME_DATABASE
  2
AcMeDbDatabase
  3
AcMeServices
 90
     1024
 91
        2
280
     0
281
     0
  0
CLASS
  1
ACRFINSADJUSTERMGR
  2
AcRfInsAdjusterMgr
  3
AcMeServices
 90
     1024
 91
        1
280
     0
281
     0
  0
CLASS
  1
ACGREFACADMASTER
  2
AcGrefacadMaster
  3
AcGrefServices
 90
     1024
 91
        1
280
     0
281
     0
  0
CLASS
  1
AMDTMENUSTATEMGR
  2
AmdtMenuStateMgr
  3
McadcomServices
 90
     1024
 91
        1
280
     0
281
     0
  0
CLASS
  1
AMDTMCOMMENUSTATE
  2
AmdtMcomMenuState
  3
McadcomServices
 90
     1024
 91
        1
280
     0
281
     0
  0
CLASS
  1
AMIMASTER
  2
AmiMaster
  3
AmiServices
 90
     1024
 91
        1
280
     0
281
     0
  0
CLASS
  1
MAPIAMMOUDLE
  2
MApiAmModule
  3
MApiAmServices
 90
     1024
 91
        1
280
     0
281
     0
  0
CLASS
  1
ACIMSTRSYSVAR
  2
AcImStrSysVar
  3
AcMeServices
 90
     1024
 91
        5
280
     0
281
     0
  0
CLASS
  1
AMDTADMENUSTATE
  2
AmdtAdMenuState
  3
DesignerServices
 90
     1024
 91
        0
280
     0
281
     0
  0
CLASS
  1
ADAPPL
  2
AcAdAppl
  3
DesignerAssemblies
 90
     1024
 91
        2
280
     0
281
     0
  0
CLASS
  1
DEPMGR
  2
AcAdDepMgr
  3
DesignerAssemblies
 90
     1024
 91
        2
280
     0
281
     0
  0
CLASS
  1
PARAMMGR
  2
AcAdParamMgr
  3
DesignerAssemblies
 90
     1024
 91
        2
280
     0
281
     0
  0
CLASS
  1
PARAMSCOPE
  2
AcAdParamScope
  3
DesignerAssemblies
 90
     1024
 91
        2
280
     0
281
     0
  0
CLASS
  1
NAMEDAPPL
  2
AcAdNamedAppl
  3
DesignerAssemblies
 90
     1024
 91
        2
280
     0
281
     0
  0
CLASS
  1
AMDTDMMENUSTATE
  2
AmdtDmMenuState
  3
AcMechDwgViewMgmt
 90
     1024
 91
        0
280
     0
281
     0
  0
CLASS
  1
AMDTAMMENUSTATE
  2
AmdtAmMenuState
  3
DesignerAssemblies
 90
     1024
 91
        1
280
     0
281
     0
  0
CLASS
  1
ACAMPROJECT
  2
AcAmProject
  3
DesignerAssemblies
 90
     1024
 91
        1
280
     0
281
     0
  0
CLASS
  1
ACAMGRCOMPDEF
  2
AcAmGrCompDef
  3
DesignerAssemblies
 90
     1024
 91
        1
280
     0
281
     0
  0
CLASS
  1
ACCMCONTEXT
  2
AcCmContext
  3
DesignerAssemblies
 90
     1024
 91
        1
280
     0
281
     0
  0
CLASS
  1
ACAMCOMPDEF
  2
AcAmCompDef
  3
DesignerAssemblies
 90
     1024
 91
        1
280
     0
281
     0
  0
CLASS
  1
ACAMCOMPDEFMGR
  2
AcAmCompDefMgr
  3
DesignerAssemblies
 90
     1024
 91
        1
280
     0
281
     0
  0
CLASS
  1
AMCONTEXTMGR
  2
AcAmContextMgr
  3
DesignerAssemblies
 90
     1024
 91
        1
280
     0
281
     0
  0
CLASS
  1
ACAMCONTEXTMODELER
  2
AcAmContextModeler
  3
DesignerAssemblies
 90
     1024
 91
        1
280
     0
281
     0
  0
CLASS
  1
ACMDATADICTIONARY
  2
AcmDataDictionary
  3
"AcmSymBB|Product Description: AutoCAD Mechanical|Company: Autodesk, Inc."
 90
     1024
 91
        1
280
     0
281
     0
  0
CLASS
  1
CATALOGSTATE
  2
AcAmCatalogState
  3
DesignerAssemblies
 90
     1024
 91
        1
280
     0
281
     0
  0
CLASS
  1
ACAMGRCOMPDEFSET
  2
AcAmGrCompDefSet
  3
DesignerAssemblies
 90
     1024
 91
        1
280
     0
281
     0
  0
CLASS
  1
AMDTBROWSERDBTAB
  2
AmdtBrowserDbTab
  3
McadcomServices
 90
     1024
 91
        1
280
     0
281
     0
  0
CLASS
  1
CBROWSERAPPOBJECT
  2
CBrowserAppObject
  3
McadcomServices
 90
     1024
 91
        2
280
     0
281
     0
  0
CLASS
  1
DM_PLACEHOLDER
  2
AcDmSelsetPlaceholder
  3
McadcomServices
 90
     1024
 91
        1
280
     0
281
     0
  0
CLASS
  1
EXACXREFPANELOBJECT
  2
ExAcXREFPanelObject
  3
EXAC_ESW
 90
     1025
 91
        1
280
     0
281
     0
  0
CLASS
  1
NPOCOLLECTION
  2
AcDbImpNonPersistentObjectsCollection
  3
ObjectDBX Classes
 90
     1153
 91
        1
280
     0
281
     0
  0
CLASS
  1
ACMSTANDARDANSI
  2
AcmStandardANSI
  3
"Amdt_StdImp|Product Description: AutoCAD Mechanical|Company: Autodesk, Inc."
 90
     1024
 91
        1
280
     0
281
     0
  0
CLASS
  1
AMGOBJPROPCFG
  2
AmgObjPropCfg
  3
"AmgLay|Product Description: AutoCAD Mechanical|Company: Autodesk, Inc."
 90
     1024
 91
        1
280
     0
281
     0
  0
CLASS
  1
ACMSURFSTANDARDANSI
  2
AcmSurfTextStdANSI
  3
"Amdt_StdImp|Product Description: AutoCAD Mechanical|Company: Autodesk, Inc."
 90
     1024
 91
        1
280
     0
281
     0
  0
CLASS
  1
ACMFCFSTANDARDANSI
  2
AcmFCFStdANSI
  3
"Amdt_StdImp|Product Description: AutoCAD Mechanical|Company: Autodesk, Inc."
 90
     1024
 91
        1
280
     0
281
     0
  0
CLASS
  1
ACMWELDSTANDARDANSI
  2
AcmWeldingStdANSI
  3
"Amdt_StdImp|Product Description: AutoCAD Mechanical|Company: Autodesk, Inc."
 90
     1024
 91
        1
280
     0
281
     0
  0
CLASS
  1
ACMIDSTANDARDANSI
  2
AcmIdStdANSI
  3
"Amdt_StdImp|Product Description: AutoCAD Mechanical|Company: Autodesk, Inc."
 90
     1024
 91
        1
280
     0
281
     0
  0
CLASS
  1
ACMDATUMSTANDARDANSI
  2
AcmDatumStdANSI
  3
"Amdt_StdImp|Product Description: AutoCAD Mechanical|Company: Autodesk, Inc."
 90
     1024
 91
        1
280
     0
281
     0
  0
CLASS
  1
ACMBOMSTANDARDANSI
  2
AcmBOMStdANSI
  3
"Amdt_StdImp|Product Description: AutoCAD Mechanical|Company: Autodesk, Inc."
 90
     1024
 91
        1
280
     0
281
     0
  0
CLASS
  1
ACMDETAILSTANDARDANSI
  2
AmdtDetailSymStdANSI
  3
"Amdt_StdImp|Product Description: AutoCAD Mechanical|Company: Autodesk, Inc."
 90
     1024
 91
        1
280
     0
281
     0
  0
CLASS
  1
ACMSECTIONSTANDARDANSI
  2
AmdtSectionSymStdANSI
  3
"Amdt_StdImp|Product Description: AutoCAD Mechanical|Company: Autodesk, Inc."
 90
     1024
 91
        1
280
     0
281
     0
  0
CLASS
  1
ACMCENTERLINESTANDARDANSI
  2
AmdtCenterLineStdANSI
  3
"Amdt_StdImp|Product Description: AutoCAD Mechanical|Company: Autodesk, Inc."
 90
     1024
 91
        1
280
     0
281
     0
  0
CLASS
  1
ACMTHREADLINESTANDARDANSI
  2
AmdtThreadLineStdANSI
  3
"Amdt_StdImp|Product Description: AutoCAD Mechanical|Company: Autodesk, Inc."
 90
     1024
 91
        1
280
     0
281
     0
  0
CLASS
  1
ACMNOTESTANDARDANSI
  2
AmdtNoteStdANSI
  3
"Amdt_StdImp|Product Description: AutoCAD Mechanical|Company: Autodesk, Inc."
 90
     1024
 91
        1
280
     0
281
     0
  0
CLASS
  1
ACMTAPERSTANDARDANSI
  2
AcmTaperStdANSI
  3
"Amdt_StdImp|Product Description: AutoCAD Mechanical|Company: Autodesk, Inc."
 90
     1024
 91
        1
280
     0
281
     0
  0
CLASS
  1
ACMANOOTATIONVIEWSTANDARDANSI
  2
AmdtAnViewStdANSI
  3
"Amdt_StdImp|Product Description: AutoCAD Mechanical|Company: Autodesk, Inc."
 90
     1024
 91
        1
280
     0
281
     0
  0
CLASS
  1
AMDTNOTETEMPLATEDB
  2
AmdtNoteTemplateDB
  3
AcmSymBB|Product Description: AutoCAD Mechanical|Company: Autodesk, Inc.
 90
     1024
 91
        6
280
     0
281
     0
  0
CLASS
  1
ACAMGLAYSTD
  2
AcAmgLayStd
  3
"AmgLay|Product Description: AutoCAD Mechanical|Company: Autodesk, Inc."
 90
     1024
 91
        1
280
     0
281
     0
  0
CLASS
  1
ACAMGDIMSTD
  2
AcAmgDimStd
  3
"AmgDim|Product Description: AutoCAD Mechanical|Company: Autodesk, Inc."
 90
     1024
 91
        1
280
     0
281
     0
  0
CLASS
  1
ACAMGHOLECHARTSTDANSI
  2
AcAmgHoleChartStdANSI
  3
AmgDim|Product Description: AutoCAD Mechanical|Company: Autodesk, Inc.
 90
     1024
 91
        1
280
     0
281
     0
  0
CLASS
  1
ACAMGTITLESTD
  2
AcAmgTitleStd
  3
"AmgTitle|Product Description: AutoCAD Mechanical|Company: Autodesk, Inc."
 90
     1024
 91
        1
280
     0
281
     0
  0
CLASS
  1
ACAMGFILTERDAT
  2
AcAmgFilterDat
  3
"AcadM|Product Description: AutoCAD Mechanical|Company: Autodesk, Inc."
 90
     1024
 91
        0
280
     0
281
     0
  0
CLASS
  1
ACMSTANDARDDIN
  2
AcmStandardDIN
  3
"Amdt_StdImp|Product Description: AutoCAD Mechanical|Company: Autodesk, Inc."
 90
     1024
 91
        0
280
     0
281
     0
  0
CLASS
  1
AMDTEDGESTANDARDDIN13715
  2
AmdtEdgeStdDIN13715
  3
"Amdt_StdImp|Product Description: AutoCAD Mechanical|Company: Autodesk, Inc."
 90
     1024
 91
        0
280
     0
281
     0
  0
CLASS
  1
ACMSURFSTANDARDDIN2002
  2
AcmSurfTextStdDIN2002
  3
"Amdt_StdImp|Product Description: AutoCAD Mechanical|Company: Autodesk, Inc."
 90
     1024
 91
        0
280
     0
281
     0
  0
CLASS
  1
ACMFCFSTANDARDDIN
  2
AcmFCFStdDIN
  3
"Amdt_StdImp|Product Description: AutoCAD Mechanical|Company: Autodesk, Inc."
 90
     1024
 91
        0
280
     0
281
     0
  0
CLASS
  1
ACMWELDSTANDARDDIN
  2
AcmWeldingStdDIN
  3
"Amdt_StdImp|Product Description: AutoCAD Mechanical|Company: Autodesk, Inc."
 90
     1024
 91
        0
280
     0
281
     0
  0
CLASS
  1
ACMIDSTANDARDDIN
  2
AcmIdStdDIN
  3
"Amdt_StdImp|Product Description: AutoCAD Mechanical|Company: Autodesk, Inc."
 90
     1024
 91
        0
280
     0
281
     0
  0
CLASS
  1
ACMDATUMSTANDARDDIN
  2
AcmDatumStdDIN
  3
"Amdt_StdImp|Product Description: AutoCAD Mechanical|Company: Autodesk, Inc."
 90
     1024
 91
        0
280
     0
281
     0
  0
CLASS
  1
ACMBOMSTANDARDDIN
  2
AcmBOMStdDIN
  3
"Amdt_StdImp|Product Description: AutoCAD Mechanical|Company: Autodesk, Inc."
 90
     1024
 91
        0
280
     0
281
     0
  0
CLASS
  1
ACMDETAILSTANDARDDIN
  2
AmdtDetailSymStdDIN
  3
"Amdt_StdImp|Product Description: AutoCAD Mechanical|Company: Autodesk, Inc."
 90
     1024
 91
        0
280
     0
281
     0
  0
CLASS
  1
ACMSECTIONSTANDARDDIN
  2
AmdtSectionSymStdDIN
  3
"Amdt_StdImp|Product Description: AutoCAD Mechanical|Company: Autodesk, Inc."
 90
     1024
 91
        0
280
     0
281
     0
  0
CLASS
  1
ACMCENTERLINESTANDARDDIN
  2
AmdtCenterLineStdDIN
  3
"Amdt_StdImp|Product Description: AutoCAD Mechanical|Company: Autodesk, Inc."
 90
     1024
 91
        0
280
     0
281
     0
  0
CLASS
  1
ACMTHREADLINESTANDARDDIN
  2
AmdtThreadLineStdDIN
  3
"Amdt_StdImp|Product Description: AutoCAD Mechanical|Company: Autodesk, Inc."
 90
     1024
 91
        0
280
     0
281
     0
  0
CLASS
  1
ACMNOTESTANDARDDIN
  2
AmdtNoteStdDIN
  3
"Amdt_StdImp|Product Description: AutoCAD Mechanical|Company: Autodesk, Inc."
 90
     1024
 91
        0
280
     0
281
     0
  0
CLASS
  1
ACMTAPERSTANDARDDIN
  2
AcmTaperStdDIN
  3
"Amdt_StdImp|Product Description: AutoCAD Mechanical|Company: Autodesk, Inc."
 90
     1024
 91
        0
280
     0
281
     0
  0
CLASS
  1
ACMANOOTATIONVIEWSTANDARDDIN
  2
AmdtAnViewStdDIN
  3
"Amdt_StdImp|Product Description: AutoCAD Mechanical|Company: Autodesk, Inc."
 90
     1024
 91
        0
280
     0
281
     0
  0
CLASS
  1
ACAMGHOLECHARTSTDDIN
  2
AcAmgHoleChartStdDIN
  3
AmgDim|Product Description: AutoCAD Mechanical|Company: Autodesk, Inc.
 90
     1024
 91
        0
280
     0
281
     0
  0
CLASS
  1
ACMSTANDARDISO
  2
AcmStandardISO
  3
"Amdt_StdImp|Product Description: AutoCAD Mechanical|Company: Autodesk, Inc."
 90
     1024
 91
        0
280
     0
281
     0
  0
CLASS
  1
AMDTEDGESTANDARDISO
  2
AmdtEdgeStdISO
  3
"Amdt_StdImp|Product Description: AutoCAD Mechanical|Company: Autodesk, Inc."
 90
     1024
 91
        0
280
     0
281
     0
  0
CLASS
  1
ACMSURFSTANDARDISO2002
  2
AcmSurfTextStdISO2002
  3
"Amdt_StdImp|Product Description: AutoCAD Mechanical|Company: Autodesk, Inc."
 90
     1024
 91
        0
280
     0
281
     0
  0
CLASS
  1
ACMFCFSTANDARDISO
  2
AcmFCFStdISO
  3
"Amdt_StdImp|Product Description: AutoCAD Mechanical|Company: Autodesk, Inc."
 90
     1024
 91
        0
280
     0
281
     0
  0
CLASS
  1
ACMWELDSTANDARDISO
  2
AcmWeldingStdISO
  3
"Amdt_StdImp|Product Description: AutoCAD Mechanical|Company: Autodesk, Inc."
 90
     1024
 91
        0
280
     0
281
     0
  0
CLASS
  1
ACMIDSTANDARDISO
  2
AcmIdStdISO
  3
"Amdt_StdImp|Product Description: AutoCAD Mechanical|Company: Autodesk, Inc."
 90
     1024
 91
        0
280
     0
281
     0
  0
CLASS
  1
ACMDATUMSTANDARDISO
  2
AcmDatumStdISO
  3
"Amdt_StdImp|Product Description: AutoCAD Mechanical|Company: Autodesk, Inc."
 90
     1024
 91
        0
280
     0
281
     0
  0
CLASS
  1
ACMBOMSTANDARDISO
  2
AcmBOMStdISO
  3
"Amdt_StdImp|Product Description: AutoCAD Mechanical|Company: Autodesk, Inc."
 90
     1024
 91
        0
280
     0
281
     0
  0
CLASS
  1
ACMDETAILSTANDARDISO
  2
AmdtDetailSymStdISO
  3
"Amdt_StdImp|Product Description: AutoCAD Mechanical|Company: Autodesk, Inc."
 90
     1024
 91
        0
280
     0
281
     0
  0
CLASS
  1
ACMSECTIONSTANDARDISO2001
  2
AmdtSectionSymStdISO2001
  3
"Amdt_StdImp|Product Description: AutoCAD Mechanical|Company: Autodesk, Inc."
 90
     1024
 91
        0
280
     0
281
     0
  0
CLASS
  1
ACMCENTERLINESTANDARDISO
  2
AmdtCenterLineStdISO
  3
"Amdt_StdImp|Product Description: AutoCAD Mechanical|Company: Autodesk, Inc."
 90
     1024
 91
        0
280
     0
281
     0
  0
CLASS
  1
ACMNOTESTANDARDISO
  2
AmdtNoteStdISO
  3
"Amdt_StdImp|Product Description: AutoCAD Mechanical|Company: Autodesk, Inc."
 90
     1024
 91
        0
280
     0
281
     0
  0
CLASS
  1
ACAMGHOLECHARTSTDISO
  2
AcAmgHoleChartStdISO
  3
AmgDim|Product Description: AutoCAD Mechanical|Company: Autodesk, Inc.
 90
     1024
 91
        0
280
     0
281
     0
  0
CLASS
  1
ACMTHREADLINESTANDARDISO
  2
AmdtThreadLineStdISO
  3
"Amdt_StdImp|Product Description: AutoCAD Mechanical|Company: Autodesk, Inc."
 90
     1024
 91
        0
280
     0
281
     0
  0
CLASS
  1
ACMTAPERSTANDARDISO
  2
AcmTaperStdISO
  3
"Amdt_StdImp|Product Description: AutoCAD Mechanical|Company: Autodesk, Inc."
 90
     1024
 91
        0
280
     0
281
     0
  0
CLASS
  1
ACMANOOTATIONVIEWSTANDARDISO
  2
AmdtAnViewStdISO
  3
"Amdt_StdImp|Product Description: AutoCAD Mechanical|Company: Autodesk, Inc."
 90
     1024
 91
        0
280
     0
281
     0
  0
CLASS
  1
RASTERVARIABLES
  2
AcDbRasterVariables
  3
ISM
 90
        0
 91
        1
280
     0
281
     0
  0
CLASS
  1
IMAGEDEF
  2
AcDbRasterImageDef
  3
ISM
 90
        0
 91
        1
280
     0
281
     0
  0
CLASS
  1
IMAGEDEF_REACTOR
  2
AcDbRasterImageDefReactor
  3
ISM
 90
        1
 91
        3
280
     0
281
     0
  0
CLASS
  1
IMAGE
  2
AcDbRasterImage
  3
ISM
 90
     2175
 91
        3
280
     0
281
     1
  0
CLASS
  1
DICTIONARYVAR
  2
AcDbDictionaryVar
  3
ObjectDBX Classes
 90
        0
 91
       41
280
     0
281
     0
  0
CLASS
  1
CELLSTYLEMAP
  2
AcDbCellStyleMap
  3
ObjectDBX Classes
 90
     1152
 91
        6
280
     0
281
     0
  0
CLASS
  1
DIMASSOC
  2
AcDbDimAssoc
  3
"AcDbDimAssoc|Product Desc:     AcDim ARX App For Dimension|Company:          Autodesk, Inc.|WEB Address:      www.autodesk.com"
 90
        0
 91
        9
280
     0
281
     0
  0
CLASS
  1
ACMDATAENTRYBLOCK
  2
AcmDataEntryBlock
  3
AcmSymBB|Product Description: AutoCAD Mechanical|Company: Autodesk, Inc.
 90
     1024
 91
        2
280
     0
281
     0
  0
CLASS
  1
ACMBOM
  2
AcmBom
  3
"AcmSymBB|Product Description: AutoCAD Mechanical|Company: Autodesk, Inc."
 90
     1024
 91
        1
280
     0
281
     0
  0
CLASS
  1
AMDTFORMULAUPDATEDISPATCHER
  2
AmdtFormulaUpdateDispatcher
  3
AcMeServices
 90
     1024
 91
        1
280
     0
281
     0
  0
CLASS
  1
CAMSSTRUCTBTNSTATE
  2
StructBtnState
  3
DesignerAssemblies
 90
     1024
 91
        1
280
     0
281
     0
  0
CLASS
  1
ACDBSECTIONVIEWSTYLE
  2
AcDbSectionViewStyle
  3
ObjectDBX Classes
 90
     1025
 91
        2
280
     0
281
     0
  0
CLASS
  1
ACDBDETAILVIEWSTYLE
  2
AcDbDetailViewStyle
  3
ObjectDBX Classes
 90
     1025
 91
        2
280
     0
281
     0
  0
CLASS
  1
ACRFATTGENMGR
  2
AcRfAttGeneralMgr
  3
AcAttribServices
 90
     1024
 91
        1
280
     0
281
     0
  0
CLASS
  1
ACRFOBJATTMGR
  2
AcRfObjAttGroupMgr
  3
AcAttribServices
 90
     1024
 91
        1
280
     0
281
     0
  0
CLASS
  1
ACRFMCADAPIATTHOLDER
  2
AcRfMCADAPIAttHolder
  3
AcAttribServices
 90
     1024
 91
        1
280
     0
281
     0
  0
CLASS
  1
AMDTSYSATTR
  2
AmdtSystemAttribute
  3
AcAttribServices
 90
     1024
 91
        1
280
     0
281
     0
  0
CLASS
  1
ACMSECTIONSTANDARDCUSTOM
  2
AmdtSectionSymStdCustom
  3
"Amdt_StdImp|Product Description: AutoCAD Mechanical|Company: Autodesk, Inc."
 90
     1024
 91
        1
280
     0
281
     0
  0
CLASS
  1
ACMDETAILTANDARDCUSTOM
  2
AmdtDetailSymStdCustom
  3
"Amdt_StdImp|Product Description: AutoCAD Mechanical|Company: Autodesk, Inc."
 90
     1024
 91
        1
280
     0
281
     0
  0
CLASS
  1
FIELD
  2
AcDbField
  3
ObjectDBX Classes
 90
     1152
 91
        7
280
     0
281
     0
  0
CLASS
  1
FIELDLIST
  2
AcDbFieldList
  3
ObjectDBX Classes
 90
     1152
 91
        1
280
     0
281
     0
  0
CLASS
  1
SORTENTSTABLE
  2
AcDbSortentsTable
  3
ObjectDBX Classes
 90
        0
 91
        2
280
     0
281
     0
  0
CLASS
  1
RAPIDRTRENDERSETTINGS
  2
AcDbRapidRTRenderSettings
  3
ObjectDBX Classes
 90
     1024
 91
        6
280
     0
281
     0
  0
ENDSEC
  0
SECTION
  2
TABLES
  0
TABLE
  2
VPORT
  5
8
330
0
100
AcDbSymbolTable
 70
     1
  0
VPORT
  5
84
330
8
100
AcDbSymbolTableRecord
100
AcDbViewportTableRecord
  2
*Active
 70
     0
 10
0.0
 20
0.0
 11
1.0
 21
1.0
 12
1222.695520424852
 22
564.9828265575719
 13
0.0
 23
0.0
 14
2.5
 24
2.5
 15
20.0
 25
20.0
 16
0.0
 26
0.0
 36
1.0
 17
0.0
 27
0.0
 37
0.0
 40
1039.132641860374
 41
2.177126917712691
 42
50.0
 43
0.0
 44
0.0
 50
0.0
 51
0.0
 71
     0
 72
   100
 73
     1
 74
     1
 75
     0
 76
     0
 77
     0
 78
     0
281
     0
 65
     1
110
0.0
120
0.0
130
0.0
111
1.0
121
0.0
131
0.0
112
0.0
122
1.0
132
0.0
 79
     0
146
0.0
348
2F
 60
     3
 61
     5
292
     1
282
     1
141
0.0
142
0.0
 63
   250
421
  3355443
1001
ACAD_NAV_VCDISPLAY
1070
     3
  0
ENDTAB
  0
TABLE
  2
LTYPE
  5
5
330
0
100
AcDbSymbolTable
 70
    23
  0
LTYPE
  5
62
330
5
100
AcDbSymbolTableRecord
100
AcDbLinetypeTableRecord
  2
ByBlock
 70
     0
  3

 72
    65
 73
     0
 40
0.0
  0
LTYPE
  5
63
330
5
100
AcDbSymbolTableRecord
100
AcDbLinetypeTableRecord
  2
ByLayer
 70
     0
  3

 72
    65
 73
     0
 40
0.0
  0
LTYPE
  5
64
330
5
100
AcDbSymbolTableRecord
100
AcDbLinetypeTableRecord
  2
CONTINUOUS
 70
     0
  3
Solid line
 72
    65
 73
     0
 40
0.0
  0
LTYPE
  5
78
330
5
100
AcDbSymbolTableRecord
100
AcDbLinetypeTableRecord
  2
CENTER
 70
     0
  3
Center line
 72
    65
 73
     4
 40
2.0
 49
1.25
 74
     0
 49
-0.25
 74
     0
 49
0.25
 74
     0
 49
-0.25
 74
     0
  0
LTYPE
  5
D00
330
5
100
AcDbSymbolTableRecord
100
AcDbLinetypeTableRecord
  2
HIDDEN
 70
     0
  3
Verdeckt
 72
    65
 73
     2
 40
0.375
 49
0.25
 74
     0
 49
-0.125
 74
     0
  0
LTYPE
  5
D01
330
5
100
AcDbSymbolTableRecord
100
AcDbLinetypeTableRecord
  2
PHANTOM2
 70
     0
  3
Phantom (.5x) ___ _ _ ___ _ _ ___ _ _ ___ _ _
 72
    65
 73
     6
 40
1.25
 49
0.625
 74
     0
 49
-0.125
 74
     0
 49
0.125
 74
     0
 49
-0.125
 74
     0
 49
0.125
 74
     0
 49
-0.125
 74
     0
  0
LTYPE
  5
D47
330
5
100
AcDbSymbolTableRecord
100
AcDbLinetypeTableRecord
  2
ACANSTGB
 70
     0
  3
__ . . __ . .
 72
    65
 73
     6
 40
0.35433070866
 49
0.15748031496
 74
     0
 49
-0.03937007874
 74
     0
 49
0.03937007874
 74
     0
 49
-0.03937007874
 74
     0
 49
0.03937007874
 74
     0
 49
-0.03937007874
 74
     0
  0
LTYPE
  5
D48
330
5
100
AcDbSymbolTableRecord
100
AcDbLinetypeTableRecord
  2
ACANSTGL
 70
     0
  3
_ _ _ _ _
 72
    65
 73
     2
 40
0.11811023622
 49
0.07874015748
 74
     0
 49
-0.03937007874
 74
     0
  0
LTYPE
  5
DBA
330
5
100
AcDbSymbolTableRecord
100
AcDbLinetypeTableRecord
  2
AM_ISO02W050
 70
     0
  3
__ __ __ __ __ __ __ __ __ __ __ __ __ __ __
 72
    65
 73
     2
 40
7.5
 49
6.0
 74
     0
 49
-1.5
 74
     0
  0
LTYPE
  5
DBB
330
5
100
AcDbSymbolTableRecord
100
AcDbLinetypeTableRecord
  2
AM_ISO08W050
 70
     0
  3
____ . ____ . ____ . ____ . ____ . ____ . ____
 72
    65
 73
     4
 40
18.0
 49
12.0
 74
     0
 49
-1.5
 74
     0
 49
3.0
 74
     0
 49
-1.5
 74
     0
  0
LTYPE
  5
DBC
330
5
100
AcDbSymbolTableRecord
100
AcDbLinetypeTableRecord
  2
AM_ISO09W050
 70
     0
  3
_____ . . _____ . . _____ . . ____ .. ____
 72
    65
 73
     6
 40
22.5
 49
12.0
 74
     0
 49
-1.5
 74
     0
 49
3.0
 74
     0
 49
-1.5
 74
     0
 49
3.0
 74
     0
 49
-1.5
 74
     0
  0
LTYPE
  5
DBD
330
5
100
AcDbSymbolTableRecord
100
AcDbLinetypeTableRecord
  2
Amconstr
 70
     0
  3
_______________________
 72
    65
 73
     2
 40
9999.0
 49
9999.0
 74
     0
 49
0.0
 74
     0
  0
LTYPE
  5
DBE
330
5
100
AcDbSymbolTableRecord
100
AcDbLinetypeTableRecord
  2
AM_ISO08W050x2
 70
     0
  3
__ . __ . __ . __ . __ . __
 72
    65
 73
     4
 40
9.0
 49
6.0
 74
     0
 49
-0.75
 74
     0
 49
1.5
 74
     0
 49
-0.75
 74
     0
  0
LTYPE
  5
DBF
330
5
100
AcDbSymbolTableRecord
100
AcDbLinetypeTableRecord
  2
AM_ISO02W050x2
 70
     0
  3
 _ _ _ _ _ _ _ _ _ _ _ _
 72
    65
 73
     2
 40
3.75
 49
3.0
 74
     0
 49
-0.75
 74
     0
  0
LTYPE
  5
DC0
330
5
100
AcDbSymbolTableRecord
100
AcDbLinetypeTableRecord
  2
Amzigzag
 70
     0
  3
/\/-/\/-/\/-/\/-/\/-/\/
 72
    65
 73
     2
 40
11.0001
 49
0.0001
 74
     4
 75
   136
340
DC1
 46
0.04
 50
0.0
 44
0.0
 45
0.0
 49
-11.0
 74
     0
  0
LTYPE
  5
DD7
330
5
100
AcDbSymbolTableRecord
100
AcDbLinetypeTableRecord
  2
ACDINWELD
 70
     0
  3
_ _ _ _ _
 72
    65
 73
     2
 40
2.0
 49
2.0
 74
     0
 49
-1.0
 74
     0
  0
LTYPE
  5
DDA
330
5
100
AcDbSymbolTableRecord
100
AcDbLinetypeTableRecord
  2
ACDINTGB
 70
     0
  3
__ . . __ . .
 72
    65
 73
     6
 40
9.0
 49
4.0
 74
     0
 49
-1.0
 74
     0
 49
1.0
 74
     0
 49
-1.0
 74
     0
 49
1.0
 74
     0
 49
-1.0
 74
     0
  0
LTYPE
  5
DDB
330
5
100
AcDbSymbolTableRecord
100
AcDbLinetypeTableRecord
  2
ACDINTGL
 70
     0
  3
_ _ _ _ _
 72
    65
 73
     2
 40
3.0
 49
2.0
 74
     0
 49
-1.0
 74
     0
  0
LTYPE
  5
DEC
330
5
100
AcDbSymbolTableRecord
100
AcDbLinetypeTableRecord
  2
DASHED
 70
     0
  3
Dashed line
 72
    65
 73
     2
 40
0.75
 49
0.5
 74
     0
 49
-0.25
 74
     0
  0
LTYPE
  5
DED
330
5
100
AcDbSymbolTableRecord
100
AcDbLinetypeTableRecord
  2
CENTER2
 70
     0
  3
Center (.5x) ___ _ ___ _ ___ _ ___ _ ___ _ ___
 72
    65
 73
     4
 40
1.125
 49
0.75
 74
     0
 49
-0.125
 74
     0
 49
0.125
 74
     0
 49
-0.125
 74
     0
  0
LTYPE
  5
DEE
330
5
100
AcDbSymbolTableRecord
100
AcDbLinetypeTableRecord
  2
HIDDEN2
 70
     0
  3
Hidden (.5x) _ _ _ _ _ _ _ _ _ _ _ _ _ _ _ _ _
 72
    65
 73
     2
 40
0.1875
 49
0.125
 74
     0
 49
-0.0625
 74
     0
  0
LTYPE
  5
E02
330
5
100
AcDbSymbolTableRecord
100
AcDbLinetypeTableRecord
  2
ACISOWELD
 70
     0
  3
_ _ _ _ _
 72
    65
 73
     2
 40
2.0
 49
2.0
 74
     0
 49
-1.0
 74
     0
  0
LTYPE
  5
E05
330
5
100
AcDbSymbolTableRecord
100
AcDbLinetypeTableRecord
  2
ACISOTGB
 70
     0
  3
__ . . __ . .
 72
    65
 73
     6
 40
9.0
 49
4.0
 74
     0
 49
-1.0
 74
     0
 49
1.0
 74
     0
 49
-1.0
 74
     0
 49
1.0
 74
     0
 49
-1.0
 74
     0
  0
LTYPE
  5
E06
330
5
100
AcDbSymbolTableRecord
100
AcDbLinetypeTableRecord
  2
ACISOTGL
 70
     0
  3
_ _ _ _ _
 72
    65
 73
     2
 40
3.0
 49
2.0
 74
     0
 49
-1.0
 74
     0
  0
ENDTAB
  0
TABLE
  2
LAYER
  5
2
102
{ACAD_XDICTIONARY
360
E25
102
}
330
0
100
AcDbSymbolTable
 70
     8
  0
LAYER
  5
5C
102
{ACAD_XDICTIONARY
360
E87
102
}
330
2
100
AcDbSymbolTableRecord
100
AcDbLayerTableRecord
  2
0
 70
     0
 62
     7
  6
CONTINUOUS
370
    -3
390
F
347
21
348
0
  0
LAYER
  5
79
330
2
100
AcDbSymbolTableRecord
100
AcDbLayerTableRecord
  2
DEFPOINTS
 70
     0
 62
    -7
  6
CONTINUOUS
290
     0
370
    -3
390
F
347
21
348
0
  0
LAYER
  5
81
102
{ACAD_XDICTIONARY
360
E89
102
}
330
2
100
AcDbSymbolTableRecord
100
AcDbLayerTableRecord
  2
70
 70
     0
 62
     7
  6
CONTINUOUS
370
    -3
390
F
347
21
348
0
  0
LAYER
  5
E20
102
{ACAD_XDICTIONARY
360
E21
102
}
330
2
100
AcDbSymbolTableRecord
100
AcDbLayerTableRecord
  2
AM_2 ( Kontur 0.25)
 70
     0
 62
     5
  6
CONTINUOUS
370
    25
390
F
347
21
348
0
1001
AcAecLayerStandard
1000

1000

  0
LAYER
  5
E24
102
{ACAD_XDICTIONARY
360
E8B
102
}
330
2
100
AcDbSymbolTableRecord
100
AcDbLayerTableRecord
  2
AM_0 ( Kontur 0.5 )
 70
     0
 62
     7
  6
CONTINUOUS
370
    50
390
F
347
21
348
0
1001
AcAecLayerStandard
1000

1000

  0
LAYER
  5
E7E
102
{ACAD_XDICTIONARY
360
E8D
102
}
330
2
100
AcDbSymbolTableRecord
100
AcDbLayerTableRecord
  2
AM_7 (Mittellinie)
 70
     0
 62
     4
  6
AM_ISO08W050
370
    25
390
F
347
21
348
0
1001
AcAecLayerStandard
1000

1000

  0
LAYER
  5
1050
330
2
100
AcDbSymbolTableRecord
100
AcDbLayerTableRecord
  2
AM_5 ( Bemassung)
 70
     0
 62
     3
  6
CONTINUOUS
370
    25
390
F
347
21
348
0
1001
AcAecLayerStandard
1000

1000

  0
LAYER
  5
1284
330
2
100
AcDbSymbolTableRecord
100
AcDbLayerTableRecord
  2
AM_0
 70
     0
 62
     7
  6
CONTINUOUS
370
    30
390
F
347
21
348
0
1001
AcAecLayerStandard
1000

1000

  0
ENDTAB
  0
TABLE
  2
STYLE
  5
3
330
0
100
AcDbSymbolTable
 70
    12
  0
STYLE
  5
5D
330
3
100
AcDbSymbolTableRecord
100
AcDbTextStyleTableRecord
  2
STANDARD
 70
     0
 40
0.0
 41
1.0
 50
0.0
 71
     0
 42
3.5
  3
ARIAL.TTF
  4

1001
ACAD
1000
Arial
1071
       34
  0
STYLE
  5
D38
330
3
100
AcDbSymbolTableRecord
100
AcDbTextStyleTableRecord
  2
ACANSTS
 70
     0
 40
1.0
 41
1.0
 50
0.0
 71
     0
 42
3.5
  3
romans.shx
  4

  0
STYLE
  5
D46
330
3
100
AcDbSymbolTableRecord
100
AcDbTextStyleTableRecord
  2
ACANSGDT
 70
     0
 40
0.0
 41
1.0
 50
0.0
 71
     0
 42
3.5
  3
amgdt.shx
  4

  0
STYLE
  5
DC1
330
3
100
AcDbSymbolTableRecord
100
AcDbTextStyleTableRecord
  2

 70
     1
 40
0.0
 41
1.0
 50
0.0
 71
     0
 42
2.5
  3
genltshp.shx
  4

  0
STYLE
  5
DD5
330
3
100
AcDbSymbolTableRecord
100
AcDbTextStyleTableRecord
  2
ACDINGDT
 70
     0
 40
0.0
 41
1.0
 50
0.0
 71
     0
 42
3.5
  3
amgdt.shx
  4

  0
STYLE
  5
DDE
330
3
100
AcDbSymbolTableRecord
100
AcDbTextStyleTableRecord
  2
ACDINTS
 70
     0
 40
1.0
 41
1.0
 50
0.0
 71
     0
 42
3.5
  3
isocp.shx
  4

  0
STYLE
  5
DFC
330
3
100
AcDbSymbolTableRecord
100
AcDbTextStyleTableRecord
  2
ACISOTS
 70
     0
 40
1.0
 41
1.0
 50
0.0
 71
     0
 42
2.5
  3
ARIALN.TTF
  4

1001
ACAD
1000
Arial Narrow
1071
       34
  0
STYLE
  5
E00
330
3
100
AcDbSymbolTableRecord
100
AcDbTextStyleTableRecord
  2
ACISOGDT
 70
     0
 40
0.0
 41
1.0
 50
0.0
 71
     0
 42
2.5
  3
amgdt.shx
  4

  0
ENDTAB
  0
TABLE
  2
VIEW
  5
6
330
0
100
AcDbSymbolTable
 70
     1
  0
ENDTAB
  0
TABLE
  2
UCS
  5
7
330
0
100
AcDbSymbolTable
 70
     0
  0
ENDTAB
  0
TABLE
  2
APPID
  5
9
330
0
100
AcDbSymbolTable
 70
    66
  0
APPID
  5
5E
330
9
100
AcDbSymbolTableRecord
100
AcDbRegAppTableRecord
  2
ACAD
 70
     0
  0
APPID
  5
65
330
9
100
AcDbSymbolTableRecord
100
AcDbRegAppTableRecord
  2
AcadAnnotative
 70
     0
  0
APPID
  5
6F
330
9
100
AcDbSymbolTableRecord
100
AcDbRegAppTableRecord
  2
ACAD_MLEADERVER
 70
     0
  0
APPID
  5
CD3
330
9
100
AcDbSymbolTableRecord
100
AcDbRegAppTableRecord
  2
MCAD_NO_VIS
 70
     0
  0
APPID
  5
CD4
330
9
100
AcDbSymbolTableRecord
100
AcDbRegAppTableRecord
  2
ACAD_TEMP_GRAPHIC
 70
     0
  0
APPID
  5
D03
330
9
100
AcDbSymbolTableRecord
100
AcDbRegAppTableRecord
  2
AD_DRAW
 70
     0
  0
APPID
  5
D06
330
9
100
AcDbSymbolTableRecord
100
AcDbRegAppTableRecord
  2
ACATTRIBSERVICES
 70
     0
  0
APPID
  5
D27
330
9
100
AcDbSymbolTableRecord
100
AcDbRegAppTableRecord
  2
DESIGNERASSEMBLIES
 70
     0
  0
APPID
  5
D2D
330
9
100
AcDbSymbolTableRecord
100
AcDbRegAppTableRecord
  2
ACADM_DIM_EDIT
 70
     0
  0
APPID
  5
D2E
330
9
100
AcDbSymbolTableRecord
100
AcDbRegAppTableRecord
  2
AMDT_DM_ADJ
 70
     0
  0
APPID
  5
D66
330
9
100
AcDbSymbolTableRecord
100
AcDbRegAppTableRecord
  2
ACAD_DSTYLE_DIMARC_LENGTH_SYMBOL
 70
     0
  0
APPID
  5
D67
330
9
100
AcDbSymbolTableRecord
100
AcDbRegAppTableRecord
  2
AcAecLayerStandard
 70
     0
  0
APPID
  5
D68
330
9
100
AcDbSymbolTableRecord
100
AcDbRegAppTableRecord
  2
ACAD_DSTYLE_DIMJOGGED_JOGANGLE_SYMBOL
 70
     0
  0
APPID
  5
D69
330
9
100
AcDbSymbolTableRecord
100
AcDbRegAppTableRecord
  2
AcadAnnoPO
 70
     0
  0
APPID
  5
D6A
330
9
100
AcDbSymbolTableRecord
100
AcDbRegAppTableRecord
  2
ACAD_EXEMPT_FROM_CAD_STANDARDS
 70
     0
  0
APPID
  5
D6B
330
9
100
AcDbSymbolTableRecord
100
AcDbRegAppTableRecord
  2
GENIUS_GENODEF_13
 70
     0
  0
APPID
  5
D6C
330
9
100
AcDbSymbolTableRecord
100
AcDbRegAppTableRecord
  2
GENIUS_GENOBJ-N-CRS_13
 70
     0
  0
APPID
  5
D6D
330
9
100
AcDbSymbolTableRecord
100
AcDbRegAppTableRecord
  2
GENIUS_GENOENT_13
 70
     0
  0
APPID
  5
D6E
330
9
100
AcDbSymbolTableRecord
100
AcDbRegAppTableRecord
  2
GENIUS_GENOLIS_13
 70
     0
  0
APPID
  5
D6F
330
9
100
AcDbSymbolTableRecord
100
AcDbRegAppTableRecord
  2
GENIUS_GENOREF_13
 70
     0
  0
APPID
  5
D70
330
9
100
AcDbSymbolTableRecord
100
AcDbRegAppTableRecord
  2
GEVID1190879659
 70
     0
  0
APPID
  5
D71
330
9
100
AcDbSymbolTableRecord
100
AcDbRegAppTableRecord
  2
GEVDC
 70
     0
  0
APPID
  5
D72
330
9
100
AcDbSymbolTableRecord
100
AcDbRegAppTableRecord
  2
GENIUS_GENBH_13
 70
     0
  0
APPID
  5
D73
330
9
100
AcDbSymbolTableRecord
100
AcDbRegAppTableRecord
  2
GENIUS_GENOBJ-NBEHI-BHF_13
 70
     0
  0
APPID
  5
D74
330
9
100
AcDbSymbolTableRecord
100
AcDbRegAppTableRecord
  2
GENIUS_GENOBJ-NBEHI-BHB_13
 70
     0
  0
APPID
  5
D75
330
9
100
AcDbSymbolTableRecord
100
AcDbRegAppTableRecord
  2
GEVID1190879660
 70
     0
  0
APPID
  5
D76
330
9
100
AcDbSymbolTableRecord
100
AcDbRegAppTableRecord
  2
GEVID1190879661
 70
     0
  0
APPID
  5
D77
330
9
100
AcDbSymbolTableRecord
100
AcDbRegAppTableRecord
  2
ACAD_DSTYLE_DIMRADIAL_EXTENSION
 70
     0
  0
APPID
  5
D78
330
9
100
AcDbSymbolTableRecord
100
AcDbRegAppTableRecord
  2
GEVID1190879662
 70
     0
  0
APPID
  5
D79
330
9
100
AcDbSymbolTableRecord
100
AcDbRegAppTableRecord
  2
GEVID1190879663
 70
     0
  0
APPID
  5
D7A
330
9
100
AcDbSymbolTableRecord
100
AcDbRegAppTableRecord
  2
GEVID1190879664
 70
     0
  0
APPID
  5
D7B
330
9
100
AcDbSymbolTableRecord
100
AcDbRegAppTableRecord
  2
GEVID1190879665
 70
     0
  0
APPID
  5
D7C
330
9
100
AcDbSymbolTableRecord
100
AcDbRegAppTableRecord
  2
GEVID1190879666
 70
     0
  0
APPID
  5
D7D
330
9
100
AcDbSymbolTableRecord
100
AcDbRegAppTableRecord
  2
GENIUS_GENOBJ-N-CEN_13
 70
     0
  0
APPID
  5
D7E
330
9
100
AcDbSymbolTableRecord
100
AcDbRegAppTableRecord
  2
GENIUS_GENCEN_19
 70
     0
  0
APPID
  5
D7F
330
9
100
AcDbSymbolTableRecord
100
AcDbRegAppTableRecord
  2
GEVID1190879667
 70
     0
  0
APPID
  5
D80
330
9
100
AcDbSymbolTableRecord
100
AcDbRegAppTableRecord
  2
GENIUS_GENOBJ-N-CRC_13
 70
     0
  0
APPID
  5
D81
330
9
100
AcDbSymbolTableRecord
100
AcDbRegAppTableRecord
  2
GENIUS_GENCRC_14
 70
     0
  0
APPID
  5
D82
330
9
100
AcDbSymbolTableRecord
100
AcDbRegAppTableRecord
  2
ACAD_PSEXT
 70
     0
  0
APPID
  5
D83
330
9
100
AcDbSymbolTableRecord
100
AcDbRegAppTableRecord
  2
GEVID1190888456
 70
     0
  0
APPID
  5
D84
330
9
100
AcDbSymbolTableRecord
100
AcDbRegAppTableRecord
  2
GEVID1190888457
 70
     0
  0
APPID
  5
D85
330
9
100
AcDbSymbolTableRecord
100
AcDbRegAppTableRecord
  2
GEVID1190888458
 70
     0
  0
APPID
  5
D86
330
9
100
AcDbSymbolTableRecord
100
AcDbRegAppTableRecord
  2
GEVID1190888459
 70
     0
  0
APPID
  5
D87
330
9
100
AcDbSymbolTableRecord
100
AcDbRegAppTableRecord
  2
GEVID1190888460
 70
     0
  0
APPID
  5
D88
330
9
100
AcDbSymbolTableRecord
100
AcDbRegAppTableRecord
  2
GEVID1190888461
 70
     0
  0
APPID
  5
D89
330
9
100
AcDbSymbolTableRecord
100
AcDbRegAppTableRecord
  2
GEVID1190888462
 70
     0
  0
APPID
  5
D8A
330
9
100
AcDbSymbolTableRecord
100
AcDbRegAppTableRecord
  2
ACAD_DSTYLE_DIMJAG
 70
     0
  0
APPID
  5
D8B
330
9
100
AcDbSymbolTableRecord
100
AcDbRegAppTableRecord
  2
ACAD_DSTYLE_DIMTALN
 70
     0
  0
APPID
  5
D8C
330
9
100
AcDbSymbolTableRecord
100
AcDbRegAppTableRecord
  2
GENIUS_GENBLLY_14
 70
     0
  0
APPID
  5
D8D
330
9
100
AcDbSymbolTableRecord
100
AcDbRegAppTableRecord
  2
DCO15
 70
     0
  0
APPID
  5
D8E
330
9
100
AcDbSymbolTableRecord
100
AcDbRegAppTableRecord
  2
GENIUS_GENREC_14
 70
     0
  0
APPID
  5
D8F
330
9
100
AcDbSymbolTableRecord
100
AcDbRegAppTableRecord
  2
GENIUS_GENOBJ-N-REC_13
 70
     0
  0
APPID
  5
D90
330
9
100
AcDbSymbolTableRecord
100
AcDbRegAppTableRecord
  2
GENIUS_GENOBJ-N-TIT_13
 70
     0
  0
APPID
  5
D91
330
9
100
AcDbSymbolTableRecord
100
AcDbRegAppTableRecord
  2
GENIUS_GENTITLE_13
 70
     0
  0
APPID
  5
D92
330
9
100
AcDbSymbolTableRecord
100
AcDbRegAppTableRecord
  2
GENIUS_GENSCREG_15
 70
     0
  0
APPID
  5
D93
330
9
100
AcDbSymbolTableRecord
100
AcDbRegAppTableRecord
  2
GENIUS_GENOBJ-N-SDF_13
 70
     0
  0
APPID
  5
D94
330
9
100
AcDbSymbolTableRecord
100
AcDbRegAppTableRecord
  2
ACAD_DSTYLE_DIMINSPECT
 70
     0
  0
APPID
  5
D95
330
9
100
AcDbSymbolTableRecord
100
AcDbRegAppTableRecord
  2
GENIUS_GENDIMSH_14
 70
     0
  0
APPID
  5
D96
330
9
100
AcDbSymbolTableRecord
100
AcDbRegAppTableRecord
  2
GENIUS_GENOBJ-N-HTC_13
 70
     0
  0
APPID
  5
D97
330
9
100
AcDbSymbolTableRecord
100
AcDbRegAppTableRecord
  2
GENIUS_GENHATCH_13
 70
     0
  0
APPID
  5
D98
330
9
100
AcDbSymbolTableRecord
100
AcDbRegAppTableRecord
  2
ACAUTHENVIRON
 70
     0
  0
APPID
  5
D99
330
9
100
AcDbSymbolTableRecord
100
AcDbRegAppTableRecord
  2
AcDbDynamicBlockTrueName
 70
     0
  0
APPID
  5
D9A
330
9
100
AcDbSymbolTableRecord
100
AcDbRegAppTableRecord
  2
AcDbDynamicBlockGUID
 70
     0
  0
APPID
  5
D9B
330
9
100
AcDbSymbolTableRecord
100
AcDbRegAppTableRecord
  2
ACDBBLOCKREPETAG
 70
     0
  0
APPID
  5
119C
330
9
100
AcDbSymbolTableRecord
100
AcDbRegAppTableRecord
  2
EAR3_SAP_ACAD
 70
     0
  0
APPID
  5
11EB
330
9
100
AcDbSymbolTableRecord
100
AcDbRegAppTableRecord
  2
ACAD_NAV_VCDISPLAY
 70
     0
  0
ENDTAB
  0
TABLE
  2
DIMSTYLE
  5
A
330
0
100
AcDbSymbolTable
 70
    28
100
AcDbDimStyleTable
 71
     2
340
DF0
340
D53
  0
DIMSTYLE
105
5F
330
A
100
AcDbSymbolTableRecord
100
AcDbDimStyleTableRecord
  2
Standard
 70
     0
340
5D
  0
DIMSTYLE
105
D53
330
A
100
AcDbSymbolTableRecord
100
AcDbDimStyleTableRecord
  2
AM_ANSI
 70
     0
  4
mm
 40
20.0
 41
0.1
 42
0.05
 43
0.5
 44
0.1
 47
0.1
 48
0.1
 78
     7
 79
     2
 90
     1
140
0.12
141
0.0
146
0.71
147
0.06
176
   256
177
   256
178
     2
274
     4
284
     7
340
5D
371
    -1
372
    -1
  0
DIMSTYLE
105
D54
330
A
100
AcDbSymbolTableRecord
100
AcDbDimStyleTableRecord
  2
AM_ANSI$3
 70
     0
  4
mm
 40
20.0
 41
0.1
 42
0.05
 43
0.5
 44
0.1
 47
0.1
 48
0.1
 78
     7
 79
     2
 90
     1
140
0.12
141
0.0
146
0.71
147
0.06
176
   256
177
   256
178
     2
274
     4
284
     7
288
     1
289
     0
340
5D
371
    -1
372
    -1
  0
DIMSTYLE
105
D55
330
A
100
AcDbSymbolTableRecord
100
AcDbDimStyleTableRecord
  2
AM_ANSI$4
 70
     0
  4
mm
 40
20.0
 41
0.1
 42
0.05
 43
0.5
 44
0.1
 47
0.1
 48
0.1
 78
     7
 79
     2
 90
     1
140
0.12
141
0.0
146
0.71
147
0.06
176
   256
177
   256
178
     2
274
     4
284
     7
288
     1
289
     0
340
5D
371
    -1
372
    -1
  0
DIMSTYLE
105
D56
330
A
100
AcDbSymbolTableRecord
100
AcDbDimStyleTableRecord
  2
AM_ANSI$7
 70
     0
  4
mm
 40
20.0
 41
0.1
 42
0.05
 43
0.5
 44
0.1
 47
0.1
 48
0.1
 78
     7
 79
     2
 90
     1
140
0.24
141
0.0
146
0.71
147
0.06
176
   256
177
   256
178
     2
274
     4
284
     7
340
5D
371
    -1
372
    -1
  0
DIMSTYLE
105
D57
330
A
100
AcDbSymbolTableRecord
100
AcDbDimStyleTableRecord
  2
AM_ANSI$SF
 70
     0
  4
mm
 40
20.0
 41
0.1
 42
0.05
 43
0.5
 44
0.1
 47
0.1
 48
0.1
 75
     1
 76
     1
 78
     7
 79
     2
 90
     1
140
0.12
141
0.0
146
0.71
147
0.06
176
   256
177
   256
178
     2
274
     4
284
     7
340
5D
371
    -1
372
    -1
  0
DIMSTYLE
105
D5C
330
A
100
AcDbSymbolTableRecord
100
AcDbDimStyleTableRecord
  2
AM_ANSI$SH
 70
     0
  4
mm
 40
20.0
 41
0.1
 42
0.05
 43
0.5
 44
0.1
 47
0.1
 48
0.1
 75
     1
 76
     1
 78
     7
 79
     2
 90
     1
140
0.12
141
0.0
146
0.71
147
0.06
173
     1
176
   256
177
   256
178
     2
274
     4
284
     7
340
5D
343
D58
371
    -1
372
    -1
  0
DIMSTYLE
105
DF0
330
A
100
AcDbSymbolTableRecord
100
AcDbDimStyleTableRecord
  2
AM_DIN
 70
     0
  4
"
 41
5.0
 42
1.0
 43
10.0
 44
1.0
 47
0.1
 48
0.1
 50
89.99999999999998
 73
     0
 74
     0
 77
     1
 78
     8
 79
     2
140
5.0
141
0.0
143
0.0393701
146
0.71
147
1.5
172
     1
176
   256
177
   256
178
     2
271
     2
272
     2
283
     0
284
     8
340
5D
371
    -1
372
    -1
1001
ACAD_DSTYLE_DIMJOGGED_JOGANGLE_SYMBOL
1070
   384
1040
1.570796326794896
  0
DIMSTYLE
105
DF1
102
{ACAD_REACTORS
330
1463
330
1466
330
146A
102
}
330
A
100
AcDbSymbolTableRecord
100
AcDbDimStyleTableRecord
  2
AM_DIN$0
 70
     0
  4
"
 41
4.0
 42
0.0
 43
10.0
 44
1.0
 47
0.1
 48
0.1
 50
89.99999999999998
 73
     0
 74
     0
 77
     1
 78
     8
 79
     2
140
3.5
141
0.0
143
0.0393701
146
0.71
147
1.5
172
     1
176
   256
177
   256
178
     2
271
     2
272
     2
283
     0
284
     8
340
5D
371
    -1
372
    -1
1001
ACAD_DSTYLE_DIMJOGGED_JOGANGLE_SYMBOL
1070
   384
1040
1.570796326794896
  0
DIMSTYLE
105
DF2
330
A
100
AcDbSymbolTableRecord
100
AcDbDimStyleTableRecord
  2
AM_DIN$2
 70
     0
  4
"
 41
4.0
 42
0.0
 43
10.0
 44
1.0
 47
0.1
 48
0.1
 50
89.99999999999998
 73
     0
 74
     0
 77
     1
 78
     8
 79
     2
140
3.5
141
0.0
143
0.0393701
146
0.71
147
1.5
172
     1
176
   256
177
   256
178
     2
271
     2
272
     2
283
     0
284
     8
340
5D
371
    -1
372
    -1
1001
ACAD_DSTYLE_DIMJOGGED_JOGANGLE_SYMBOL
1070
   384
1040
1.570796326794896
  0
DIMSTYLE
105
DF3
330
A
100
AcDbSymbolTableRecord
100
AcDbDimStyleTableRecord
  2
AM_DIN$3
 70
     0
  4
"
 41
3.5
 42
1.0
 43
10.0
 44
1.0
 47
0.1
 48
0.1
 50
89.99999999999998
 73
     0
 77
     1
 78
     8
 79
     2
140
3.5
141
0.0
143
0.0393701
146
0.71
147
1.5
176
   256
177
   256
178
     2
271
     2
272
     2
283
     0
284
     8
288
     1
289
     0
340
5D
371
    -1
372
    -1
1001
ACAD_DSTYLE_DIMJOGGED_JOGANGLE_SYMBOL
1070
   384
1040
1.570796326794896
  0
DIMSTYLE
105
DF4
330
A
100
AcDbSymbolTableRecord
100
AcDbDimStyleTableRecord
  2
AM_DIN$4
 70
     0
  4
"
 41
4.0
 42
1.0
 43
10.0
 44
1.0
 47
0.1
 48
0.1
 50
89.99999999999998
 73
     0
 77
     1
 78
     8
 79
     2
140
3.5
141
0.0
143
0.0393701
146
0.71
147
1.5
176
   256
177
   256
178
     2
271
     2
272
     2
283
     0
284
     8
288
     1
289
     0
340
5D
371
    -1
372
    -1
1001
ACAD_DSTYLE_DIMJOGGED_JOGANGLE_SYMBOL
1070
   384
1040
1.570796326794896
  0
DIMSTYLE
105
DF5
330
A
100
AcDbSymbolTableRecord
100
AcDbDimStyleTableRecord
  2
AM_DIN$6
 70
     0
  4
"
 41
4.0
 42
0.0
 43
10.0
 44
1.0
 47
0.1
 48
0.1
 50
89.99999999999998
 73
     0
 74
     0
 78
     8
 79
     2
140
3.5
141
0.0
143
0.0393701
146
0.71
147
1.5
172
     1
176
   256
177
   256
178
     2
271
     2
272
     2
283
     0
284
     8
340
5D
371
    -1
372
    -1
1001
ACAD_DSTYLE_DIMJOGGED_JOGANGLE_SYMBOL
1070
   384
1040
1.570796326794896
  0
DIMSTYLE
105
DF6
330
A
100
AcDbSymbolTableRecord
100
AcDbDimStyleTableRecord
  2
AM_DIN$7
 70
     0
  4
"
 41
5.0
 42
1.0
 43
10.0
 44
1.0
 47
0.1
 48
0.1
 50
89.99999999999998
 73
     0
 74
     0
 77
     1
 78
     8
 79
     2
140
5.0
141
0.0
143
0.0393701
146
0.71
147
1.5
172
     1
176
   256
177
   256
178
     2
271
     2
272
     2
283
     0
284
     8
340
5D
371
    -1
372
    -1
1001
ACAD_DSTYLE_DIMJOGGED_JOGANGLE_SYMBOL
1070
   384
1040
1.570796326794896
  0
DIMSTYLE
105
DF7
330
A
100
AcDbSymbolTableRecord
100
AcDbDimStyleTableRecord
  2
AM_DIN$SF
 70
     0
  4
"
 41
4.0
 42
1.0
 43
10.0
 44
1.0
 47
0.1
 48
0.1
 50
89.99999999999998
 73
     0
 74
     0
 75
     1
 76
     1
 77
     1
 78
     8
 79
     2
140
3.5
141
0.0
143
0.0393701
146
0.71
147
1.5
172
     1
176
   256
177
   256
178
     2
271
     2
272
     2
283
     0
284
     8
340
5D
371
    -1
372
    -1
1001
ACAD_DSTYLE_DIMJOGGED_JOGANGLE_SYMBOL
1070
   384
1040
1.570796326794896
  0
DIMSTYLE
105
DF8
330
A
100
AcDbSymbolTableRecord
100
AcDbDimStyleTableRecord
  2
AM_DIN$SH
 70
     0
  4
"
 41
4.0
 42
1.0
 43
10.0
 44
1.0
 47
0.1
 48
0.1
 50
89.99999999999998
 73
     0
 74
     0
 75
     1
 76
     1
 77
     1
 78
     8
 79
     2
140
3.5
141
0.0
143
0.0393701
144
2.0
146
0.71
147
1.5
172
     1
173
     1
176
   256
177
   256
178
     2
271
     2
272
     2
283
     0
284
     8
340
5D
343
D58
371
    -1
372
    -1
1001
ACAD_DSTYLE_DIMJOGGED_JOGANGLE_SYMBOL
1070
   384
1040
1.570796326794896
  0
DIMSTYLE
105
E14
330
A
100
AcDbSymbolTableRecord
100
AcDbDimStyleTableRecord
  2
AM_ISO
 70
     0
  4
"
 41
2.5
 42
1.0
 43
10.0
 44
1.0
 47
0.1
 48
0.1
 73
     0
 74
     0
 77
     1
 78
     8
 79
     2
 90
     1
140
3.5
141
0.0
143
0.0393701
146
0.71
147
1.5
172
     1
176
   256
177
   256
178
     2
271
     2
272
     3
274
     4
283
     0
284
     8
340
5D
371
    -1
372
    -1
1001
ACAD_DSTYLE_DIMJOGGED_JOGANGLE_SYMBOL
1070
   384
1040
0.7853981633974483
  0
DIMSTYLE
105
E15
330
A
100
AcDbSymbolTableRecord
100
AcDbDimStyleTableRecord
  2
AM_ISO$3
 70
     0
  4
"
 41
2.5
 42
1.0
 43
10.0
 44
1.0
 47
0.1
 48
0.1
 73
     0
 77
     1
 78
     8
 79
     2
 90
     1
140
3.5
141
0.0
143
0.0393701
146
0.71
147
1.5
176
   256
177
   256
178
     2
271
     2
272
     3
274
     4
283
     0
284
     8
288
     1
289
     0
340
5D
371
    -1
372
    -1
1001
ACAD_DSTYLE_DIMJOGGED_JOGANGLE_SYMBOL
1070
   384
1040
0.7853981633974483
  0
DIMSTYLE
105
E16
330
A
100
AcDbSymbolTableRecord
100
AcDbDimStyleTableRecord
  2
AM_ISO$4
 70
     0
  4
"
 41
2.5
 42
1.0
 43
10.0
 44
1.0
 47
0.1
 48
0.1
 73
     0
 77
     1
 78
     8
 79
     2
 90
     1
140
3.5
141
0.0
143
0.0393701
146
0.71
147
1.5
176
   256
177
   256
178
     2
271
     2
272
     3
274
     4
283
     0
284
     8
288
     1
289
     0
340
5D
371
    -1
372
    -1
1001
ACAD_DSTYLE_DIMJOGGED_JOGANGLE_SYMBOL
1070
   384
1040
0.7853981633974483
  0
DIMSTYLE
105
E17
330
A
100
AcDbSymbolTableRecord
100
AcDbDimStyleTableRecord
  2
AM_ISO$6
 70
     0
  4
"
 41
2.5
 42
1.0
 43
10.0
 44
1.0
 47
0.1
 48
0.1
 73
     0
 74
     0
 78
     8
 79
     2
 90
     1
140
3.5
141
0.0
143
0.0393701
146
0.71
147
1.5
172
     1
176
   256
177
   256
178
     2
271
     2
272
     3
274
     4
283
     0
284
     8
340
5D
371
    -1
372
    -1
1001
ACAD_DSTYLE_DIMJOGGED_JOGANGLE_SYMBOL
1070
   384
1040
0.7853981633974483
  0
DIMSTYLE
105
E18
330
A
100
AcDbSymbolTableRecord
100
AcDbDimStyleTableRecord
  2
AM_ISO$7
 70
     0
  4
"
 41
2.5
 42
1.0
 43
10.0
 44
1.0
 47
0.1
 48
0.1
 73
     0
 74
     0
 77
     1
 78
     8
 79
     2
 90
     1
140
5.0
141
0.0
143
0.0393701
146
0.71
147
1.5
172
     1
176
   256
177
   256
178
     2
271
     2
272
     3
274
     4
283
     0
284
     8
340
5D
371
    -1
372
    -1
1001
ACAD_DSTYLE_DIMJOGGED_JOGANGLE_SYMBOL
1070
   384
1040
0.7853981633974483
  0
DIMSTYLE
105
E19
330
A
100
AcDbSymbolTableRecord
100
AcDbDimStyleTableRecord
  2
AM_ISO$SF
 70
     0
  4
"
 41
2.5
 42
1.0
 43
10.0
 44
1.0
 47
0.1
 48
0.1
 73
     0
 74
     0
 75
     1
 76
     1
 77
     1
 78
     8
 79
     2
 90
     1
140
3.5
141
0.0
143
0.0393701
146
0.71
147
1.5
172
     1
176
   256
177
   256
178
     2
271
     2
272
     3
274
     4
283
     0
284
     8
340
5D
371
    -1
372
    -1
1001
ACAD_DSTYLE_DIMJOGGED_JOGANGLE_SYMBOL
1070
   384
1040
0.7853981633974483
  0
DIMSTYLE
105
E1A
330
A
100
AcDbSymbolTableRecord
100
AcDbDimStyleTableRecord
  2
AM_ISO$SH
 70
     0
  4
"
 41
2.5
 42
1.0
 43
10.0
 44
1.0
 47
0.1
 48
0.1
 73
     0
 74
     0
 75
     1
 76
     1
 77
     1
 78
     8
 79
     2
 90
     1
140
3.5
141
0.0
143
0.0393701
144
2.0
146
0.71
147
1.5
172
     1
173
     1
176
   256
177
   256
178
     2
271
     2
272
     3
274
     4
283
     0
284
     8
340
5D
343
D58
371
    -1
372
    -1
1001
ACAD_DSTYLE_DIMJOGGED_JOGANGLE_SYMBOL
1070
   384
1040
0.7853981633974483
  0
DIMSTYLE
105
F78
330
A
100
AcDbSymbolTableRecord
100
AcDbDimStyleTableRecord
  2
AM_ANSI$0
 70
     0
  4
mm
 40
20.0
 41
0.1
 42
0.05
 43
0.5
 44
0.1
 47
0.1
 48
0.1
 78
     7
 79
     2
 90
     1
140
0.12
141
0.0
146
0.71
147
0.06
176
   256
177
   256
178
     2
274
     4
284
     7
340
5D
371
    -1
372
    -1
  0
ENDTAB
  0
TABLE
  2
BLOCK_RECORD
  5
1
330
0
100
AcDbSymbolTable
 70
    24
  0
BLOCK_RECORD
  5
74
102
{ACAD_XDICTIONARY
360
14A3
102
}
330
1
100
AcDbSymbolTableRecord
100
AcDbBlockTableRecord
  2
*Model_Space
340
77
 70
     0
280
     1
281
     0
  0
BLOCK_RECORD
  5
70
330
1
100
AcDbSymbolTableRecord
100
AcDbBlockTableRecord
  2
*Paper_Space
340
73
 70
     0
280
     1
281
     0
  0
BLOCK_RECORD
  5
350
330
1
100
AcDbSymbolTableRecord
100
AcDbBlockTableRecord
  2
*X0
340
0
 70
     0
280
     1
281
     0
  0
BLOCK_RECORD
  5
387
330
1
100
AcDbSymbolTableRecord
100
AcDbBlockTableRecord
  2
*X1
340
0
 70
     0
280
     1
281
     0
  0
BLOCK_RECORD
  5
D58
330
1
100
AcDbSymbolTableRecord
100
AcDbBlockTableRecord
  2
GENAXEH
340
0
310
2800000020000000200000000100080000000000000400000000000000000000000000000000000000000000000080000080000000808000800000008000800080800000C0C0C000C0DCC000F0CAA6000020400000206000002080000020A0000020C0000020E00000400000004020000040400000406000004080000040A0
310
000040C0000040E00000600000006020000060400000606000006080000060A0000060C0000060E00000800000008020000080400000806000008080000080A0000080C0000080E00000A0000000A0200000A0400000A0600000A0800000A0A00000A0C00000A0E00000C0000000C0200000C0400000C0600000C0800000C0
310
A00000C0C00000C0E00000E0000000E0200000E0400000E0600000E0800000E0A00000E0C00000E0E00040000000400020004000400040006000400080004000A0004000C0004000E00040200000402020004020400040206000402080004020A0004020C0004020E000404000004040200040404000404060004040800040
310
40A0004040C0004040E00040600000406020004060400040606000406080004060A0004060C0004060E00040800000408020004080400040806000408080004080A0004080C0004080E00040A0000040A0200040A0400040A0600040A0800040A0A00040A0C00040A0E00040C0000040C0200040C0400040C0600040C08000
310
40C0A00040C0C00040C0E00040E0000040E0200040E0400040E0600040E0800040E0A00040E0C00040E0E00080000000800020008000400080006000800080008000A0008000C0008000E00080200000802020008020400080206000802080008020A0008020C0008020E00080400000804020008040400080406000804080
310
008040A0008040C0008040E00080600000806020008060400080606000806080008060A0008060C0008060E00080800000808020008080400080806000808080008080A0008080C0008080E00080A0000080A0200080A0400080A0600080A0800080A0A00080A0C00080A0E00080C0000080C0200080C0400080C0600080C0
310
800080C0A00080C0C00080C0E00080E0000080E0200080E0400080E0600080E0800080E0A00080E0C00080E0E000C0000000C0002000C0004000C0006000C0008000C000A000C000C000C000E000C0200000C0202000C0204000C0206000C0208000C020A000C020C000C020E000C0400000C0402000C0404000C0406000C0
310
408000C040A000C040C000C040E000C0600000C0602000C0604000C0606000C0608000C060A000C060C000C060E000C0800000C0802000C0804000C0806000C0808000C080A000C080C000C080E000C0A00000C0A02000C0A04000C0A06000C0A08000C0A0A000C0A0C000C0A0E000C0C00000C0C02000C0C04000C0C06000
310
C0C08000C0C0A000F0FBFF00A4A0A000808080000000FF0000FF000000FFFF00FF000000FF00FF00FFFF0000FFFFFF0000000000000000000000000000000000000000000000000000000000000000000000000000000000000000000000000000000000000000000000000000000000000000000000000000000000000000
310
00000000000000000000000000000000000000000000000000000000000000000000000000000000000000000000000000000000000000000000000000000000000000000000000000000000000000000000000000000000000000000000000000000000000000000000000000000000000000000000000000000000000000
310
00000000000000000000000000000000000000000000000000000000000000000000000000000000000000000000000000000000000000000000000000000000000000000000000000000000000000000000000000000000000000000000000000000000000000000000000000000000000000000000000000000000000000
310
00000000000000000000000000000000000000000000000000000000000000000000000000000000000000000000000000000000000000000000000000000000000000000000000000000000000000000000000000000000000000000000000000000000000000000000000000000000000000000000000000000000000000
310
0000000000000000000000000000000000000000000000000000000000000000000000000000000000000000000000000000000000FFFFFFFFFFFFFFFFFFFFFFFFFFFFFFFFFFFFFFFFFFFFFFFFFFFFFFFFFFFF0000000000000000000000000000000000000000000000000000000000000000000000000000000000000000
310
00000000000000000000000000000000000000000000000000000000000000000000000000000000000000000000000000000000000000000000000000000000000000000000000000000000000000000000000000000000000000000000000000000000000000000000000000000000000000000000000000000000000000
310
00000000000000000000000000000000000000000000000000000000000000000000000000000000000000000000000000000000000000000000000000000000000000000000000000000000000000000000000000000000000000000000000000000000000000000000000000000000000000000000000000000000000000
310
00000000000000000000000000000000000000000000000000000000000000000000000000000000000000000000000000000000000000000000000000000000000000000000000000000000000000000000000000000000000000000000000000000000000000000000000000000000000000000000000000000000000000
310
0000000000000000000000000000000000000000000000000000000000000000000000000000000000000000000000000000000000000000
 70
     0
280
     1
281
     0
  0
BLOCK_RECORD
  5
1079
330
1
100
AcDbSymbolTableRecord
100
AcDbBlockTableRecord
  2
*D4
340
0
 70
     0
280
     1
281
     0
  0
BLOCK_RECORD
  5
10AC
330
1
100
AcDbSymbolTableRecord
100
AcDbBlockTableRecord
  2
*D5
340
0
 70
     0
280
     1
281
     0
  0
BLOCK_RECORD
  5
10CE
330
1
100
AcDbSymbolTableRecord
100
AcDbBlockTableRecord
  2
*D6
340
0
 70
     0
280
     1
281
     0
  0
BLOCK_RECORD
  5
11CA
330
1
100
AcDbSymbolTableRecord
100
AcDbBlockTableRecord
  2
_ACMNONE
340
0
 70
     0
280
     1
281
     0
  0
BLOCK_RECORD
  5
11CE
330
1
100
AcDbSymbolTableRecord
100
AcDbBlockTableRecord
  2
_ACMFILLED
340
0
 70
     0
280
     1
281
     0
  0
BLOCK_RECORD
  5
11D9
330
1
100
AcDbSymbolTableRecord
100
AcDbBlockTableRecord
  2
_ACMFILLEDHALF
340
0
 70
     0
280
     1
281
     0
  0
BLOCK_RECORD
  5
11F9
330
1
100
AcDbSymbolTableRecord
100
AcDbBlockTableRecord
  2
*X11
340
0
102
{BLKREFS
331
145F
331
1484
102
}
 70
     0
280
     1
281
     0
  0
BLOCK_RECORD
  5
1230
330
1
100
AcDbSymbolTableRecord
100
AcDbBlockTableRecord
  2
*X12
340
0
102
{BLKREFS
331
1460
331
1485
102
}
 70
     0
280
     1
281
     0
  0
BLOCK_RECORD
  5
1260
330
1
100
AcDbSymbolTableRecord
100
AcDbBlockTableRecord
  2
*D13
340
0
 70
     0
280
     1
281
     0
  0
BLOCK_RECORD
  5
126C
330
1
100
AcDbSymbolTableRecord
100
AcDbBlockTableRecord
  2
*D14
340
0
 70
     0
280
     1
281
     0
  0
BLOCK_RECORD
  5
1278
330
1
100
AcDbSymbolTableRecord
100
AcDbBlockTableRecord
  2
*D15
340
0
 70
     0
280
     1
281
     0
  0
BLOCK_RECORD
  5
14A5
330
1
100
AcDbSymbolTableRecord
100
AcDbBlockTableRecord
  2
*D17
340
0
 70
     0
280
     1
281
     0
  0
BLOCK_RECORD
  5
14B1
330
1
100
AcDbSymbolTableRecord
100
AcDbBlockTableRecord
  2
*D18
340
0
 70
     0
280
     1
281
     0
  0
BLOCK_RECORD
  5
14BD
330
1
100
AcDbSymbolTableRecord
100
AcDbBlockTableRecord
  2
*D19
340
0
 70
     0
280
     1
281
     0
  0
ENDTAB
  0
ENDSEC
  0
SECTION
  2
BLOCKS
  0
BLOCK
  5
75
330
74
100
AcDbEntity
  8
0
100
AcDbBlockBegin
  2
*Model_Space
 70
     0
 10
0.0
 20
0.0
 30
0.0
  3
*Model_Space
  1

  0
ENDBLK
  5
76
330
74
100
AcDbEntity
  8
0
100
AcDbBlockEnd
  0
BLOCK
  5
71
330
70
100
AcDbEntity
 67
     1
  8
0
100
AcDbBlockBegin
  2
*Paper_Space
 70
     0
 10
0.0
 20
0.0
 30
0.0
  3
*Paper_Space
  1

  0
ENDBLK
  5
72
330
70
100
AcDbEntity
 67
     1
  8
0
100
AcDbBlockEnd
  0
BLOCK
  5
351
330
350
100
AcDbEntity
  8
0
100
AcDbBlockBegin
  2
*X0
 70
     1
 10
0.0
 20
0.0
 30
0.0
  3
*X0
  1

  0
LINE
  5
352
330
350
100
AcDbEntity
  8
70
 62
     2
100
AcDbLine
 10
-387.065406817325
 20
-109.089033726056
 30
2.0
 11
-386.58751849764
 21
-108.611145406371
 31
2.0
  0
LINE
  5
353
330
350
100
AcDbEntity
  8
70
 62
     2
100
AcDbLine
 10
-386.2337657427279
 20
-108.393157151409
 30
2.0
 11
-387.285578141719
 21
-109.444969550399
 31
2.0
  0
LINE
  5
354
330
350
100
AcDbEntity
  8
70
 62
     2
100
AcDbLine
 10
-387.392398633998
 20
-109.687554542627
 30
2.0
 11
-385.989043378016
 21
-108.284199286644
 31
2.0
  0
LINE
  5
355
330
350
100
AcDbEntity
  8
70
 62
     2
100
AcDbLine
 10
-385.791139447854
 20
-108.222059856432
 30
2.0
 11
-387.458558504321
 21
-109.889478912899
 31
2.0
  0
LINE
  5
356
330
350
100
AcDbEntity
  8
70
 62
     2
100
AcDbLine
 10
-387.496038511209
 20
-110.062723419735
 30
2.0
 11
-385.614526424044
 21
-108.18121133257
 31
2.0
  0
LINE
  5
357
330
350
100
AcDbEntity
  8
70
 62
     2
100
AcDbLine
 10
-385.455372281365
 20
-108.15782168984
 30
2.0
 11
-387.5218287109671
 21
-110.224278119442
 31
2.0
  0
LINE
  5
358
330
350
100
AcDbEntity
  8
70
 62
     2
100
AcDbLine
 10
-387.536844007069
 20
-110.375057915494
 30
2.0
 11
-385.330871572267
 21
-108.169085480691
 31
2.0
  0
LINE
  5
359
330
350
100
AcDbEntity
  8
70
 62
     2
100
AcDbLine
 10
-385.330855176905
 20
-108.304833585278
 30
2.0
 11
-387.536841259313
 21
-110.510819667687
 31
2.0
  0
LINE
  5
35A
330
350
100
AcDbEntity
  8
70
 62
     2
100
AcDbLine
 10
-387.536838511558
 20
-110.64658141988
 30
2.0
 11
-386.38909326081
 21
-109.498836169132
 31
2.0
  0
LINE
  5
35B
330
350
100
AcDbEntity
  8
70
 62
     2
100
AcDbLine
 10
-386.179530182087
 20
-109.289273090408
 30
2.0
 11
-385.330838781543
 21
-108.440581689865
 31
2.0
  0
LINE
  5
35C
330
350
100
AcDbEntity
  8
70
 62
     2
100
AcDbLine
 10
-385.330822386181
 20
-108.576329794451
 30
2.0
 11
-385.819842949754
 21
-109.065350358025
 31
2.0
  0
LINE
  5
35D
330
350
100
AcDbEntity
  8
70
 62
     2
100
AcDbLine
 10
-386.6132344997319
 20
-109.858741908003
 30
2.0
 11
-387.52459434883
 21
-110.7701017571
 31
2.0
  0
LINE
  5
35E
330
350
100
AcDbEntity
  8
70
 62
     2
100
AcDbLine
 10
-387.505900598994
 20
-110.887172507214
 30
2.0
 11
-386.6901937387741
 21
-110.071465646994
 31
2.0
  0
LINE
  5
35F
330
350
100
AcDbEntity
  8
70
 62
     2
100
AcDbLine
 10
-385.607088039733
 20
-108.988359947952
 30
2.0
 11
-385.330805990818
 21
-108.712077899038
 31
2.0
  0
LINE
  5
360
330
350
100
AcDbEntity
  8
70
 62
     2
100
AcDbLine
 10
-385.330789595456
 20
-108.847826003625
 30
2.0
 11
-385.433995581579
 21
-108.951031989747
 31
2.0
  0
LINE
  5
361
330
350
100
AcDbEntity
  8
70
 62
     2
100
AcDbLine
 10
-386.593452525589
 20
-110.110488933758
 30
2.0
 11
-387.487206849159
 21
-111.004243257327
 31
2.0
  0
LINE
  5
362
330
350
100
AcDbEntity
  8
70
 62
     2
100
AcDbLine
 10
-387.4612374651349
 20
-111.114038373252
 30
2.0
 11
-386.457699970065
 21
-110.110500878182
 31
2.0
  0
LINE
  5
363
330
350
100
AcDbEntity
  8
70
 62
     2
100
AcDbLine
 10
-386.321947414541
 20
-110.110512822607
 30
2.0
 11
-387.427729015547
 21
-111.216294423613
 31
2.0
  0
LINE
  5
364
330
350
100
AcDbEntity
  8
70
 62
     2
100
AcDbLine
 10
-387.394220565959
 20
-111.318550473974
 30
2.0
 11
-386.186194859017
 21
-110.110524767031
 31
2.0
  0
LINE
  5
365
330
350
100
AcDbEntity
  8
70
 62
     2
100
AcDbLine
 10
-386.050442303492
 20
-110.110536711456
 30
2.0
 11
-387.360644042922
 21
-111.420738450886
 31
2.0
  0
LINE
  5
366
330
350
100
AcDbEntity
  8
70
 62
     2
100
AcDbLine
 10
-387.314537158118
 20
-111.510396066032
 30
2.0
 11
-385.914689747967
 21
-110.11054865588
 31
2.0
  0
LINE
  5
367
330
350
100
AcDbEntity
  8
70
 62
     2
100
AcDbLine
 10
-385.778937192444
 20
-110.110560600305
 30
2.0
 11
-386.569468366576
 21
-110.901091774438
 31
2.0
  0
LINE
  5
368
330
350
100
AcDbEntity
  8
70
 62
     2
100
AcDbLine
 10
-386.669389939991
 20
-111.001013347853
 30
2.0
 11
-387.268430273316
 21
-111.600053681177
 31
2.0
  0
LINE
  5
369
330
350
100
AcDbEntity
  8
70
 62
     2
100
AcDbLine
 10
-387.222323388512
 20
-111.689711296323
 30
2.0
 11
-386.634884736213
 21
-111.102272644024
 31
2.0
  0
LINE
  5
36A
330
350
100
AcDbEntity
  8
70
 62
     2
100
AcDbLine
 10
-386.4336915284559
 20
-110.901079436267
 30
2.0
 11
-385.647087580857
 21
-110.114475488668
 31
2.0
  0
LINE
  5
36B
330
350
100
AcDbEntity
  8
70
 62
     2
100
AcDbLine
 10
-385.64707109399
 20
-110.2502235017499
 30
2.0
 11
-386.297914690335
 21
-110.901067098095
 31
2.0
  0
LINE
  5
36C
330
350
100
AcDbEntity
  8
70
 62
     2
100
AcDbLine
 10
-386.591469994981
 20
-111.194622402741
 30
2.0
 11
-387.172975714353
 21
-111.776128122113
 31
2.0
  0
LINE
  5
36D
330
350
100
AcDbEntity
  8
70
 62
     2
100
AcDbLine
 10
-387.115497990906
 20
-111.854414898613
 30
2.0
 11
-386.544911205414
 21
-111.283828113122
 31
2.0
  0
LINE
  5
36E
330
350
100
AcDbEntity
  8
70
 62
     2
100
AcDbLine
 10
-386.162137852215
 20
-110.901054759923
 30
2.0
 11
-385.647054607123
 21
-110.385971514832
 31
2.0
  0
LINE
  5
36F
330
350
100
AcDbEntity
  8
70
 62
     2
100
AcDbLine
 10
-385.647038120257
 20
-110.521719527914
 30
2.0
 11
-386.026361014095
 21
-110.901042421752
 31
2.0
  0
LINE
  5
370
330
350
100
AcDbEntity
  8
70
 62
     2
100
AcDbLine
 10
-386.494537498221
 20
-111.369218905879
 30
2.0
 11
-387.058020267458
 21
-111.932701675115
 31
2.0
  0
LINE
  5
371
330
350
100
AcDbEntity
  8
70
 62
     2
100
AcDbLine
 10
-387.000542544009
 20
-112.010988451615
 30
2.0
 11
-386.437062442774
 21
-111.447508350381
 31
2.0
  0
LINE
  5
372
330
350
100
AcDbEntity
  8
70
 62
     2
100
AcDbLine
 10
-385.890584175974
 20
-110.90103008358
 30
2.0
 11
-385.647021633389
 21
-110.657467540996
 31
2.0
  0
LINE
  5
373
330
350
100
AcDbEntity
  8
70
 62
     2
100
AcDbLine
 10
-385.647005146522
 20
-110.793215554077
 30
2.0
 11
-385.754807337853
 21
-110.901017745408
 31
2.0
  0
LINE
  5
374
330
350
100
AcDbEntity
  8
70
 62
     2
100
AcDbLine
 10
-386.379587387327
 20
-111.525797794883
 30
2.0
 11
-386.938484892155
 21
-112.084695299711
 31
2.0
  0
LINE
  5
375
330
350
100
AcDbEntity
  8
70
 62
     2
100
AcDbLine
 10
-386.87017955581
 20
-112.152154463314
 30
2.0
 11
-386.313014378929
 21
-111.594989286433
 31
2.0
  0
LINE
  5
376
330
350
100
AcDbEntity
  8
70
 62
     2
100
AcDbLine
 10
-386.245124793467
 20
-111.6628642009199
 30
2.0
 11
-386.801874219463
 21
-112.219613626916
 31
2.0
  0
LINE
  5
377
330
350
100
AcDbEntity
  8
70
 62
     2
100
AcDbLine
 10
-386.733568883117
 20
-112.287072790519
 30
2.0
 11
-386.173394557032
 21
-111.726898464434
 31
2.0
  0
LINE
  5
378
330
350
100
AcDbEntity
  8
70
 62
     2
100
AcDbLine
 10
-386.09509009622
 20
-111.784358503571
 30
2.0
 11
-386.659666043324
 21
-112.348934450674
 31
2.0
  0
LINE
  5
379
330
350
100
AcDbEntity
  8
70
 62
     2
100
AcDbLine
 10
-386.580511523617
 20
-112.405544430916
 30
2.0
 11
-386.016785635409
 21
-111.841818542708
 31
2.0
  0
LINE
  5
37A
330
350
100
AcDbEntity
  8
70
 62
     2
100
AcDbLine
 10
-385.928732403338
 20
-111.889529810587
 30
2.0
 11
-386.501357003909
 21
-112.462154411157
 31
2.0
  0
LINE
  5
37B
330
350
100
AcDbEntity
  8
70
 62
     2
100
AcDbLine
 10
-386.422202484202
 20
-112.518764391399
 30
2.0
 11
-385.839510573243
 21
-111.93607248044
 31
2.0
  0
LINE
  5
37C
330
350
100
AcDbEntity
  8
70
 62
     2
100
AcDbLine
 10
-385.74423555916
 20
-111.976561966307
 30
2.0
 11
-386.335479254091
 21
-112.567805661237
 31
2.0
  0
LINE
  5
37D
330
350
100
AcDbEntity
  8
70
 62
     2
100
AcDbLine
 10
-386.244884611179
 20
-112.612975518274
 30
2.0
 11
-385.642989897989
 21
-112.011080805084
 31
2.0
  0
LINE
  5
37E
330
350
100
AcDbEntity
  8
70
 62
     2
100
AcDbLine
 10
-385.538171675795
 20
-112.042027082839
 30
2.0
 11
-386.154289968268
 21
-112.658145375312
 31
2.0
  0
LINE
  5
37F
330
350
100
AcDbEntity
  8
70
 62
     2
100
AcDbLine
 10
-386.063695325357
 20
-112.703315232349
 30
2.0
 11
-385.422940962399
 21
-112.062560869392
 31
2.0
  0
LINE
  5
380
330
350
100
AcDbEntity
  8
70
 62
     2
100
AcDbLine
 10
-385.330871588032
 20
-112.106255994974
 30
2.0
 11
-385.960924882468
 21
-112.736309289409
 31
2.0
  0
LINE
  5
381
330
350
100
AcDbEntity
  8
70
 62
     2
100
AcDbLine
 10
-385.857598893244
 20
-112.768747800134
 30
2.0
 11
-385.3308552388321
 21
-112.242004145722
 31
2.0
  0
LINE
  5
382
330
350
100
AcDbEntity
  8
70
 62
     2
100
AcDbLine
 10
-385.3308388896321
 20
-112.377752296471
 30
2.0
 11
-385.75427290402
 21
-112.801186310859
 31
2.0
  0
LINE
  5
383
330
350
100
AcDbEntity
  8
70
 62
     2
100
AcDbLine
 10
-385.643516608534
 20
-112.826194515322
 30
2.0
 11
-385.330822540432
 21
-112.51350044722
 31
2.0
  0
LINE
  5
384
330
350
100
AcDbEntity
  8
70
 62
     2
100
AcDbLine
 10
-385.330806191232
 20
-112.649248597968
 30
2.0
 11
-385.525116869488
 21
-112.843559276225
 31
2.0
  0
LINE
  5
385
330
350
100
AcDbEntity
  8
70
 62
     2
100
AcDbLine
 10
-385.406717130443
 20
-112.860924037129
 30
2.0
 11
-385.330789842032
 21
-112.784996748717
 31
2.0
  0
ENDBLK
  5
386
330
350
100
AcDbEntity
  8
0
100
AcDbBlockEnd
  0
BLOCK
  5
388
330
387
100
AcDbEntity
  8
0
100
AcDbBlockBegin
  2
*X1
 70
     1
 10
0.0
 20
0.0
 30
0.0
  3
*X1
  1

  0
LINE
  5
389
330
387
100
AcDbEntity
  8
70
 62
     2
100
AcDbLine
 10
-390.414680516375
 20
-109.315723926283
 30
2.0
 11
-389.5545610172789
 21
-108.455604427186
 31
2.0
  0
LINE
  5
38A
330
387
100
AcDbEntity
  8
70
 62
     2
100
AcDbLine
 10
-389.283766645804
 20
-108.320574555661
 30
2.0
 11
-390.557362652663
 21
-109.59417056252
 31
2.0
  0
LINE
  5
38B
330
387
100
AcDbEntity
  8
70
 62
     2
100
AcDbLine
 10
-390.623522522986
 20
-109.796094932791
 30
2.0
 11
-389.078225074022
 21
-108.250797483827
 31
2.0
  0
LINE
  5
38C
330
387
100
AcDbEntity
  8
70
 62
     2
100
AcDbLine
 10
-388.883691432812
 20
-108.192028342565
 30
2.0
 11
-390.679672294736
 21
-109.98800920449
 31
2.0
  0
LINE
  5
38D
330
387
100
AcDbEntity
  8
70
 62
     2
100
AcDbLine
 10
-390.7054624944941
 20
-110.149563904196
 30
2.0
 11
-388.724537290132
 21
-108.168638699835
 31
2.0
  0
LINE
  5
38E
330
387
100
AcDbEntity
  8
70
 62
     2
100
AcDbLine
 10
-388.565383147453
 20
-108.145249057105
 30
2.0
 11
-390.731252694252
 21
-110.311118603903
 31
2.0
  0
LINE
  5
38F
330
387
100
AcDbEntity
  8
70
 62
     2
100
AcDbLine
 10
-390.732403509396
 20
-110.448033918996
 30
2.0
 11
-388.526423738598
 21
-108.242054148199
 31
2.0
  0
LINE
  5
390
330
387
100
AcDbEntity
  8
70
 62
     2
100
AcDbLine
 10
-388.526407343237
 20
-108.377802252785
 30
2.0
 11
-390.732400761641
 21
-110.58379567119
 31
2.0
  0
LINE
  5
391
330
387
100
AcDbEntity
  8
70
 62
     2
100
AcDbLine
 10
-390.728800628179
 20
-110.715960037677
 30
2.0
 11
-389.739025491494
 21
-109.726184900992
 31
2.0
  0
LINE
  5
392
330
387
100
AcDbEntity
  8
70
 62
     2
100
AcDbLine
 10
-389.151614452666
 20
-109.138773862164
 30
2.0
 11
-388.526390947874
 21
-108.513550357372
 31
2.0
  0
LINE
  5
393
330
387
100
AcDbEntity
  8
70
 62
     2
100
AcDbLine
 10
-388.526374552512
 20
-108.649298461959
 30
2.0
 11
-388.900355155994
 21
-109.02327906544
 31
2.0
  0
LINE
  5
394
330
387
100
AcDbEntity
  8
70
 62
     2
100
AcDbLine
 10
-389.855080709269
 20
-109.978004618716
 30
2.0
 11
-390.7101068783439
 21
-110.833030787791
 31
2.0
  0
LINE
  5
395
330
387
100
AcDbEntity
  8
70
 62
     2
100
AcDbLine
 10
-390.691413128508
 20
-110.950101537905
 30
2.0
 11
-389.908661031319
 21
-110.167349440715
 31
2.0
  0
LINE
  5
396
330
387
100
AcDbEntity
  8
70
 62
     2
100
AcDbLine
 10
-388.709621086968
 20
-108.968309496363
 30
2.0
 11
-388.52635815715
 21
-108.785046566545
 31
2.0
  0
LINE
  5
397
330
387
100
AcDbEntity
  8
70
 62
     2
100
AcDbLine
 10
-388.526341761787
 20
-108.920794671132
 30
2.0
 11
-388.541008403094
 21
-108.935461312439
 31
2.0
  0
LINE
  5
398
330
387
100
AcDbEntity
  8
70
 62
     2
100
AcDbLine
 10
-389.932839508553
 20
-110.327292417897
 30
2.0
 11
-390.672295099897
 21
-111.066748009242
 31
2.0
  0
LINE
  5
399
330
387
100
AcDbEntity
  8
70
 62
     2
100
AcDbLine
 10
-390.638786650309
 20
-111.169004059602
 30
2.0
 11
-389.946628773357
 21
-110.476846182651
 31
2.0
  0
LINE
  5
39A
330
387
100
AcDbEntity
  8
70
 62
     2
100
AcDbLine
 10
-389.940060114947
 20
-110.606042024189
 30
2.0
 11
-390.60527820072
 21
-111.271260109963
 31
2.0
  0
LINE
  5
39B
330
387
100
AcDbEntity
  8
70
 62
     2
100
AcDbLine
 10
-390.571769751132
 20
-111.373516160324
 30
2.0
 11
-389.928605973127
 21
-110.730352382319
 31
2.0
  0
LINE
  5
39C
330
387
100
AcDbEntity
  8
70
 62
     2
100
AcDbLine
 10
-389.908249506585
 20
-110.845760415726
 30
2.0
 11
-390.53142119225
 21
-111.46893210139
 31
2.0
  0
LINE
  5
39D
330
387
100
AcDbEntity
  8
70
 62
     2
100
AcDbLine
 10
-390.485314307446
 20
-111.558589716535
 30
2.0
 11
-389.878310277324
 21
-110.951585686414
 31
2.0
  0
LINE
  5
39E
330
387
100
AcDbEntity
  8
70
 62
     2
100
AcDbLine
 10
-389.8483710480639
 20
-111.057410957102
 30
2.0
 11
-390.439207422643
 21
-111.648247331681
 31
2.0
  0
LINE
  5
39F
330
387
100
AcDbEntity
  8
70
 62
     2
100
AcDbLine
 10
-390.393100537839
 20
-111.737904946826
 30
2.0
 11
-389.805788293335
 21
-111.150592702322
 31
2.0
  0
LINE
  5
3A0
330
387
100
AcDbEntity
  8
70
 62
     2
100
AcDbLine
 10
-389.760844330598
 20
-111.241413239534
 30
2.0
 11
-390.337640697718
 21
-111.818209606654
 31
2.0
  0
LINE
  5
3A1
330
387
100
AcDbEntity
  8
70
 62
     2
100
AcDbLine
 10
-390.28016297427
 20
-111.896496383155
 30
2.0
 11
-389.715900367862
 21
-111.332233776746
 31
2.0
  0
LINE
  5
3A2
330
387
100
AcDbEntity
  8
70
 62
     2
100
AcDbLine
 10
-389.658009912509
 20
-111.410107821343
 30
2.0
 11
-390.222685250822
 21
-111.974783159655
 31
2.0
  0
LINE
  5
3A3
330
387
100
AcDbEntity
  8
70
 62
     2
100
AcDbLine
 10
-390.165207527375
 20
-112.053069936157
 30
2.0
 11
-389.599835143402
 21
-111.487697552185
 31
2.0
  0
LINE
  5
3A4
330
387
100
AcDbEntity
  8
70
 62
     2
100
AcDbLine
 10
-389.541660374295
 20
-111.565287283026
 30
2.0
 11
-390.097329709649
 21
-112.120956618379
 31
2.0
  0
LINE
  5
3A5
330
387
100
AcDbEntity
  8
70
 62
     2
100
AcDbLine
 10
-390.029024373303
 20
-112.188415781983
 30
2.0
 11
-389.47111913291
 21
-111.630510541591
 31
2.0
  0
LINE
  5
3A6
330
387
100
AcDbEntity
  8
70
 62
     2
100
AcDbLine
 10
-389.400398896309
 20
-111.695554804938
 30
2.0
 11
-389.960719036957
 21
-112.255874945586
 31
2.0
  0
LINE
  5
3A7
330
387
100
AcDbEntity
  8
70
 62
     2
100
AcDbLine
 10
-389.891833619884
 20
-112.322754028461
 30
2.0
 11
-389.329678659709
 21
-111.760599068286
 31
2.0
  0
LINE
  5
3A8
330
387
100
AcDbEntity
  8
70
 62
     2
100
AcDbLine
 10
-389.246660517039
 20
-111.813345425566
 30
2.0
 11
-389.812679100177
 21
-112.379364008703
 31
2.0
  0
LINE
  5
3A9
330
387
100
AcDbEntity
  8
70
 62
     2
100
AcDbLine
 10
-389.733524580469
 20
-112.435973988945
 30
2.0
 11
-389.163198253082
 21
-111.865647661557
 31
2.0
  0
LINE
  5
3AA
330
387
100
AcDbEntity
  8
70
 62
     2
100
AcDbLine
 10
-389.07947878689
 20
-111.917692695314
 30
2.0
 11
-389.654370060762
 21
-112.492583969186
 31
2.0
  0
LINE
  5
3AB
330
387
100
AcDbEntity
  8
70
 62
     2
100
AcDbLine
 10
-389.5729375453679
 20
-112.546915953741
 30
2.0
 11
-388.982138558027
 21
-111.956116966401
 31
2.0
  0
LINE
  5
3AC
330
387
100
AcDbEntity
  8
70
 62
     2
100
AcDbLine
 10
-388.884798329165
 20
-111.994541237487
 30
2.0
 11
-389.482342902457
 21
-112.592085810779
 31
2.0
  0
LINE
  5
3AD
330
387
100
AcDbEntity
  8
70
 62
     2
100
AcDbLine
 10
-389.391748259546
 20
-112.637255667817
 30
2.0
 11
-388.783458139227
 21
-112.028965547498
 31
2.0
  0
LINE
  5
3AE
330
387
100
AcDbEntity
  8
70
 62
     2
100
AcDbLine
 10
-388.669803974604
 20
-112.051075882824
 30
2.0
 11
-389.301153616634
 21
-112.682425524855
 31
2.0
  0
LINE
  5
3AF
330
387
100
AcDbEntity
  8
70
 62
     2
100
AcDbLine
 10
-389.204271040521
 20
-112.72130744869
 30
2.0
 11
-388.556149809982
 21
-112.07318621815
 31
2.0
  0
LINE
  5
3B0
330
387
100
AcDbEntity
  8
70
 62
     2
100
AcDbLine
 10
-388.526423779178
 20
-112.179224687295
 30
2.0
 11
-389.100945051297
 21
-112.753745959415
 31
2.0
  0
LINE
  5
3B1
330
387
100
AcDbEntity
  8
70
 62
     2
100
AcDbLine
 10
-388.997619062073
 20
-112.78618447014
 30
2.0
 11
-388.5264074299771
 21
-112.314972838043
 31
2.0
  0
LINE
  5
3B2
330
387
100
AcDbEntity
  8
70
 62
     2
100
AcDbLine
 10
-388.526391080776
 20
-112.450720988792
 30
2.0
 11
-388.8938339249051
 21
-112.81816383292
 31
2.0
  0
LINE
  5
3B3
330
387
100
AcDbEntity
  8
70
 62
     2
100
AcDbLine
 10
-388.775434185859
 20
-112.835528593823
 30
2.0
 11
-388.5263747315761
 21
-112.58646913954
 31
2.0
  0
LINE
  5
3B4
330
387
100
AcDbEntity
  8
70
 62
     2
100
AcDbLine
 10
-388.5263583823761
 20
-112.72221729029
 30
2.0
 11
-388.657034446814
 21
-112.852893354727
 31
2.0
  0
LINE
  5
3B5
330
387
100
AcDbEntity
  8
70
 62
     2
100
AcDbLine
 10
-388.538634707768
 20
-112.87025811563
 30
2.0
 11
-388.526342033176
 21
-112.857965441038
 31
2.0
  0
ENDBLK
  5
3B6
330
387
100
AcDbEntity
  8
0
100
AcDbBlockEnd
  0
BLOCK
  5
FFB
330
D58
100
AcDbEntity
  8
0
100
AcDbBlockBegin
  2
GENAXEH
 70
     0
 10
0.0
 20
0.0
 30
0.0
  3
GENAXEH
  1

  0
LINE
  5
FFC
330
D58
100
AcDbEntity
  8
0
100
AcDbLine
 10
-1.0
 20
0.0
 30
0.0
 11
1.0
 21
0.0
 31
0.0
  0
ENDBLK
  5
FFD
330
D58
100
AcDbEntity
  8
0
100
AcDbBlockEnd
  0
BLOCK
  5
107A
330
1079
100
AcDbEntity
  8
0
100
AcDbBlockBegin
  2
*D4
 70
     1
 10
0.0
 20
0.0
 30
0.0
  3
*D4
  1

  0
LINE
  5
10A2
330
1079
100
AcDbEntity
  8
AM_5 ( Bemassung)
440
 16777216
100
AcDbLine
 10
-365.288021519853
 20
13.41301428884091
 30
0.0
 11
-365.288021519853
 21
51.44539685540258
 31
0.0
  0
LINE
  5
10A3
330
1079
100
AcDbEntity
  8
AM_5 ( Bemassung)
440
 16777216
100
AcDbLine
 10
-560.288021519853
 20
13.41301428884091
 30
0.0
 11
-560.288021519853
 21
51.44539685540258
 31
0.0
  0
LINE
  5
10A4
330
1079
100
AcDbEntity
  8
AM_5 ( Bemassung)
440
 16777216
100
AcDbLine
 10
-369.288021519853
 20
50.44539685540257
 30
0.0
 11
-556.288021519853
 21
50.44539685540257
 31
0.0
  0
SOLID
  5
10A5
330
1079
100
AcDbEntity
  8
AM_5 ( Bemassung)
440
 16777216
100
AcDbTrace
 10
-369.288021519853
 20
51.11206352206924
 30
0.0
 11
-369.288021519853
 21
49.77873018873591
 31
0.0
 12
-365.288021519853
 22
50.44539685540257
 32
0.0
 13
-365.288021519853
 23
50.44539685540257
 33
0.0
  0
SOLID
  5
10A6
330
1079
100
AcDbEntity
  8
AM_5 ( Bemassung)
440
 16777216
100
AcDbTrace
 10
-556.288021519853
 20
51.11206352206924
 30
0.0
 11
-556.288021519853
 21
49.77873018873591
 31
0.0
 12
-560.288021519853
 22
50.44539685540257
 32
0.0
 13
-560.288021519853
 23
50.44539685540257
 33
0.0
  0
MTEXT
  5
10A7
330
1079
100
AcDbEntity
  8
AM_5 ( Bemassung)
 62
     2
440
 16777216
100
AcDbMText
 10
-462.7880215198529
 20
53.73240231242849
 30
0.0
 40
3.5
 41
0.0
 46
0.0
 71
     5
 72
     1
  1
195
 73
     1
 44
1.0
  0
POINT
  5
10A8
330
1079
100
AcDbEntity
  8
DEFPOINTS
 62
     0
440
 16777216
100
AcDbPoint
 10
-365.288021519853
 20
13.41301428884091
 30
0.0
  0
POINT
  5
10A9
330
1079
100
AcDbEntity
  8
DEFPOINTS
 62
     0
440
 16777216
100
AcDbPoint
 10
-560.288021519853
 20
13.41301428884091
 30
0.0
  0
POINT
  5
10AA
330
1079
100
AcDbEntity
  8
DEFPOINTS
 62
     0
440
 16777216
100
AcDbPoint
 10
-560.288021519853
 20
50.44539685540257
 30
0.0
  0
ENDBLK
  5
107B
330
1079
100
AcDbEntity
  8
0
100
AcDbBlockEnd
  0
BLOCK
  5
10AD
330
10AC
100
AcDbEntity
  8
0
100
AcDbBlockBegin
  2
*D5
 70
     1
 10
0.0
 20
0.0
 30
0.0
  3
*D5
  1

  0
LINE
  5
10C3
330
10AC
100
AcDbEntity
  8
AM_5 ( Bemassung)
440
 16777216
100
AcDbLine
 10
-553.288021519853
 20
20.4130142888409
 30
0.0
 11
-580.844329812156
 21
20.4130142888409
 31
0.0
  0
LINE
  5
10C4
330
10AC
100
AcDbEntity
  8
AM_5 ( Bemassung)
440
 16777216
100
AcDbLine
 10
-553.288021519853
 20
-174.586985711159
 30
0.0
 11
-580.844329812156
 21
-174.5869857111589
 31
0.0
  0
LINE
  5
10C5
330
10AC
100
AcDbEntity
  8
AM_5 ( Bemassung)
440
 16777216
100
AcDbLine
 10
-579.8443298121561
 20
16.4130142888409
 30
0.0
 11
-579.8443298121561
 21
-170.5869857111589
 31
0.0
  0
SOLID
  5
10C6
330
10AC
100
AcDbEntity
  8
AM_5 ( Bemassung)
440
 16777216
100
AcDbTrace
 10
-580.5109964788226
 20
16.4130142888409
 30
0.0
 11
-579.1776631454893
 21
16.4130142888409
 31
0.0
 12
-579.8443298121561
 22
20.4130142888409
 32
0.0
 13
-579.8443298121561
 23
20.4130142888409
 33
0.0
  0
SOLID
  5
10C7
330
10AC
100
AcDbEntity
  8
AM_5 ( Bemassung)
440
 16777216
100
AcDbTrace
 10
-580.5109964788226
 20
-170.5869857111589
 30
0.0
 11
-579.1776631454893
 21
-170.5869857111589
 31
0.0
 12
-579.8443298121561
 22
-174.5869857111589
 32
0.0
 13
-579.8443298121561
 23
-174.5869857111589
 33
0.0
  0
MTEXT
  5
10C8
330
10AC
100
AcDbEntity
  8
AM_5 ( Bemassung)
 62
     2
440
 16777216
100
AcDbMText
 10
-583.1313352691819
 20
-77.0869857111591
 30
0.0
 40
3.5
 41
0.0
 46
0.0
 71
     5
 72
     1
  1
195
 11
0.0000000000000001
 21
1.0
 31
0.0
 73
     1
 44
1.0
  0
POINT
  5
10C9
330
10AC
100
AcDbEntity
  8
DEFPOINTS
 62
     0
440
 16777216
100
AcDbPoint
 10
-553.288021519853
 20
20.4130142888409
 30
0.0
  0
POINT
  5
10CA
330
10AC
100
AcDbEntity
  8
DEFPOINTS
 62
     0
440
 16777216
100
AcDbPoint
 10
-553.288021519853
 20
-174.586985711159
 30
0.0
  0
POINT
  5
10CB
330
10AC
100
AcDbEntity
  8
DEFPOINTS
 62
     0
440
 16777216
100
AcDbPoint
 10
-579.8443298121561
 20
-174.5869857111589
 30
0.0
  0
ENDBLK
  5
10AE
330
10AC
100
AcDbEntity
  8
0
100
AcDbBlockEnd
  0
BLOCK
  5
10CF
330
10CE
100
AcDbEntity
  8
0
100
AcDbBlockBegin
  2
*D6
 70
     1
 10
0.0
 20
0.0
 30
0.0
  3
*D6
  1

  0
LINE
  5
10E5
330
10CE
100
AcDbEntity
  8
AM_5 ( Bemassung)
440
 16777216
100
AcDbLine
 10
-194.535522114551
 20
-77.08698571115899
 30
0.0
 11
-194.535522114551
 21
49.20600545446973
 31
0.0
  0
LINE
  5
10E6
330
10CE
100
AcDbEntity
  8
AM_5 ( Bemassung)
440
 16777216
100
AcDbLine
 10
-315.535522114551
 20
20.413014288841
 30
0.0
 11
-315.535522114551
 21
49.20600545446973
 31
0.0
  0
LINE
  5
10E7
330
10CE
100
AcDbEntity
  8
AM_5 ( Bemassung)
440
 16777216
100
AcDbLine
 10
-198.535522114551
 20
48.20600545446972
 30
0.0
 11
-311.535522114551
 21
48.20600545446972
 31
0.0
  0
SOLID
  5
10E8
330
10CE
100
AcDbEntity
  8
AM_5 ( Bemassung)
440
 16777216
100
AcDbTrace
 10
-198.535522114551
 20
48.8726721211364
 30
0.0
 11
-198.535522114551
 21
47.53933878780307
 31
0.0
 12
-194.535522114551
 22
48.20600545446972
 32
0.0
 13
-194.535522114551
 23
48.20600545446972
 33
0.0
  0
SOLID
  5
10E9
330
10CE
100
AcDbEntity
  8
AM_5 ( Bemassung)
440
 16777216
100
AcDbTrace
 10
-311.535522114551
 20
48.8726721211364
 30
0.0
 11
-311.535522114551
 21
47.53933878780307
 31
0.0
 12
-315.535522114551
 22
48.20600545446972
 32
0.0
 13
-315.535522114551
 23
48.20600545446972
 33
0.0
  0
MTEXT
  5
10EA
330
10CE
100
AcDbEntity
  8
AM_5 ( Bemassung)
 62
     2
440
 16777216
100
AcDbMText
 10
-255.035522114551
 20
51.46316780099088
 30
0.0
 40
3.5
 41
0.0
 46
0.0
 71
     5
 72
     1
  1
121
 73
     1
 44
1.0
  0
POINT
  5
10EB
330
10CE
100
AcDbEntity
  8
DEFPOINTS
 62
     0
440
 16777216
100
AcDbPoint
 10
-194.535522114551
 20
-77.08698571115899
 30
0.0
  0
POINT
  5
10EC
330
10CE
100
AcDbEntity
  8
DEFPOINTS
 62
     0
440
 16777216
100
AcDbPoint
 10
-315.535522114551
 20
20.413014288841
 30
0.0
  0
POINT
  5
10ED
330
10CE
100
AcDbEntity
  8
DEFPOINTS
 62
     0
440
 16777216
100
AcDbPoint
 10
-315.535522114551
 20
48.20600545446972
 30
0.0
  0
ENDBLK
  5
10D0
330
10CE
100
AcDbEntity
  8
0
100
AcDbBlockEnd
  0
BLOCK
  5
11CB
330
11CA
100
AcDbEntity
  8
0
100
AcDbBlockBegin
  2
_ACMNONE
 70
     0
 10
0.0
 20
0.0
 30
0.0
  3
_ACMNONE
  1

  0
LINE
  5
11CD
330
11CA
100
AcDbEntity
  8
AM_7 (Mittellinie)
  6
AM_ISO08W050x2
 62
     0
100
AcDbLine
 10
-1.0
 20
0.0
 30
0.0
 11
0.0
 21
0.0
 31
0.0
  0
ENDBLK
  5
11CC
330
11CA
100
AcDbEntity
  8
0
100
AcDbBlockEnd
  0
BLOCK
  5
11CF
330
11CE
100
AcDbEntity
  8
0
100
AcDbBlockBegin
  2
_ACMFILLED
 70
     0
 10
0.0
 20
0.0
 30
0.0
  3
_ACMFILLED
  1

  0
TRACE
  5
11D1
330
11CE
100
AcDbEntity
  8
AM_7 (Mittellinie)
  6
AM_ISO08W050x2
 62
     0
100
AcDbTrace
 10
-1.0
 20
-0.166666666
 30
0.0
 11
-1.0
 21
0.166666666
 31
0.0
 12
0.0
 22
0.0
 32
0.0
 13
0.0
 23
0.0
 33
0.0
  0
ENDBLK
  5
11D0
330
11CE
100
AcDbEntity
  8
0
100
AcDbBlockEnd
  0
BLOCK
  5
11DA
330
11D9
100
AcDbEntity
  8
0
100
AcDbBlockBegin
  2
_ACMFILLEDHALF
 70
     0
 10
0.0
 20
0.0
 30
0.0
  3
_ACMFILLEDHALF
  1

  0
TRACE
  5
11DC
330
11D9
100
AcDbEntity
  8
AM_7 (Mittellinie)
  6
AM_ISO08W050x2
 62
     0
100
AcDbTrace
 10
-0.8
 20
0.0
 30
0.0
 11
-1.0
 21
0.166666666
 31
0.0
 12
0.0
 22
0.0
 32
0.0
 13
0.0
 23
0.0
 33
0.0
  0
LINE
  5
11DD
330
11D9
100
AcDbEntity
  8
AM_7 (Mittellinie)
  6
AM_ISO08W050x2
 62
     0
100
AcDbLine
 10
-1.0
 20
0.0
 30
0.0
 11
-0.8
 21
0.0
 31
0.0
  0
ENDBLK
  5
11DB
330
11D9
100
AcDbEntity
  8
0
100
AcDbBlockEnd
  0
BLOCK
  5
11FA
330
11F9
100
AcDbEntity
  8
0
100
AcDbBlockBegin
  2
*X11
 70
     1
 10
0.0
 20
0.0
 30
0.0
  3
*X11
  1

  0
LINE
  5
11FB
330
11F9
100
AcDbEntity
  8
70
 62
     2
100
AcDbLine
 10
-389.891196906899
 20
-388.438568295406
 30
2.0
 11
-389.413308587214
 21
-387.960679975721
 31
2.0
  0
LINE
  5
11FC
330
11F9
100
AcDbEntity
  8
70
 62
     2
100
AcDbLine
 10
-389.059555832302
 20
-387.742691720759
 30
2.0
 11
-390.1113682312931
 21
-388.794504119749
 31
2.0
  0
LINE
  5
11FD
330
11F9
100
AcDbEntity
  8
70
 62
     2
100
AcDbLine
 10
-390.218188723572
 20
-389.037089111977
 30
2.0
 11
-388.81483346759
 21
-387.633733855994
 31
2.0
  0
LINE
  5
11FE
330
11F9
100
AcDbEntity
  8
70
 62
     2
100
AcDbLine
 10
-388.616929537428
 20
-387.571594425782
 30
2.0
 11
-390.2843485938951
 21
-389.239013482249
 31
2.0
  0
LINE
  5
11FF
330
11F9
100
AcDbEntity
  8
70
 62
     2
100
AcDbLine
 10
-390.321828600783
 20
-389.412257989085
 30
2.0
 11
-388.4403165136181
 21
-387.53074590192
 31
2.0
  0
LINE
  5
1200
330
11F9
100
AcDbEntity
  8
70
 62
     2
100
AcDbLine
 10
-388.281162370939
 20
-387.50735625919
 30
2.0
 11
-390.347618800541
 21
-389.573812688792
 31
2.0
  0
LINE
  5
1201
330
11F9
100
AcDbEntity
  8
70
 62
     2
100
AcDbLine
 10
-390.362634096643
 20
-389.724592484844
 30
2.0
 11
-388.156661661841
 21
-387.518620050041
 31
2.0
  0
LINE
  5
1202
330
11F9
100
AcDbEntity
  8
70
 62
     2
100
AcDbLine
 10
-388.156645266479
 20
-387.654368154628
 30
2.0
 11
-390.362631348887
 21
-389.860354237037
 31
2.0
  0
LINE
  5
1203
330
11F9
100
AcDbEntity
  8
70
 62
     2
100
AcDbLine
 10
-390.362628601132
 20
-389.9961159892299
 30
2.0
 11
-389.214883350384
 21
-388.848370738482
 31
2.0
  0
LINE
  5
1204
330
11F9
100
AcDbEntity
  8
70
 62
     2
100
AcDbLine
 10
-389.005320271661
 20
-388.638807659758
 30
2.0
 11
-388.156628871117
 21
-387.790116259215
 31
2.0
  0
LINE
  5
1205
330
11F9
100
AcDbEntity
  8
70
 62
     2
100
AcDbLine
 10
-388.156612475755
 20
-387.925864363801
 30
2.0
 11
-388.645633039328
 21
-388.4148849273751
 31
2.0
  0
LINE
  5
1206
330
11F9
100
AcDbEntity
  8
70
 62
     2
100
AcDbLine
 10
-389.4390245893061
 20
-389.208276477353
 30
2.0
 11
-390.350384438404
 21
-390.1196363264499
 31
2.0
  0
LINE
  5
1207
330
11F9
100
AcDbEntity
  8
70
 62
     2
100
AcDbLine
 10
-390.331690688568
 20
-390.236707076564
 30
2.0
 11
-389.515983828348
 21
-389.421000216344
 31
2.0
  0
LINE
  5
1208
330
11F9
100
AcDbEntity
  8
70
 62
     2
100
AcDbLine
 10
-388.432878129307
 20
-388.337894517302
 30
2.0
 11
-388.156596080392
 21
-388.061612468388
 31
2.0
  0
LINE
  5
1209
330
11F9
100
AcDbEntity
  8
70
 62
     2
100
AcDbLine
 10
-388.15657968503
 20
-388.197360572975
 30
2.0
 11
-388.2597856711531
 21
-388.300566559097
 31
2.0
  0
LINE
  5
120A
330
11F9
100
AcDbEntity
  8
70
 62
     2
100
AcDbLine
 10
-389.4192426151629
 20
-389.460023503108
 30
2.0
 11
-390.312996938733
 21
-390.353777826677
 31
2.0
  0
LINE
  5
120B
330
11F9
100
AcDbEntity
  8
70
 62
     2
100
AcDbLine
 10
-390.287027554709
 20
-390.463572942602
 30
2.0
 11
-389.283490059639
 21
-389.460035447532
 31
2.0
  0
LINE
  5
120C
330
11F9
100
AcDbEntity
  8
70
 62
     2
100
AcDbLine
 10
-389.147737504115
 20
-389.460047391957
 30
2.0
 11
-390.253519105121
 21
-390.565828992963
 31
2.0
  0
LINE
  5
120D
330
11F9
100
AcDbEntity
  8
70
 62
     2
100
AcDbLine
 10
-390.220010655533
 20
-390.668085043324
 30
2.0
 11
-389.011984948591
 21
-389.460059336381
 31
2.0
  0
LINE
  5
120E
330
11F9
100
AcDbEntity
  8
70
 62
     2
100
AcDbLine
 10
-388.876232393066
 20
-389.460071280806
 30
2.0
 11
-390.186434132496
 21
-390.770273020236
 31
2.0
  0
LINE
  5
120F
330
11F9
100
AcDbEntity
  8
70
 62
     2
100
AcDbLine
 10
-390.140327247692
 20
-390.859930635382
 30
2.0
 11
-388.740479837541
 21
-389.4600832252301
 31
2.0
  0
LINE
  5
1210
330
11F9
100
AcDbEntity
  8
70
 62
     2
100
AcDbLine
 10
-388.604727282018
 20
-389.460095169655
 30
2.0
 11
-389.39525845615
 21
-390.250626343788
 31
2.0
  0
LINE
  5
1211
330
11F9
100
AcDbEntity
  8
70
 62
     2
100
AcDbLine
 10
-389.495180029565
 20
-390.350547917203
 30
2.0
 11
-390.09422036289
 21
-390.949588250527
 31
2.0
  0
LINE
  5
1212
330
11F9
100
AcDbEntity
  8
70
 62
     2
100
AcDbLine
 10
-390.048113478086
 20
-391.039245865673
 30
2.0
 11
-389.4606748257869
 21
-390.451807213374
 31
2.0
  0
LINE
  5
1213
330
11F9
100
AcDbEntity
  8
70
 62
     2
100
AcDbLine
 10
-389.25948161803
 20
-390.250614005617
 30
2.0
 11
-388.472877670431
 21
-389.4640100580181
 31
2.0
  0
LINE
  5
1214
330
11F9
100
AcDbEntity
  8
70
 62
     2
100
AcDbLine
 10
-388.472861183564
 20
-389.5997580711
 30
2.0
 11
-389.123704779909
 21
-390.250601667445
 31
2.0
  0
LINE
  5
1215
330
11F9
100
AcDbEntity
  8
70
 62
     2
100
AcDbLine
 10
-389.417260084555
 20
-390.544156972091
 30
2.0
 11
-389.998765803927
 21
-391.125662691463
 31
2.0
  0
LINE
  5
1216
330
11F9
100
AcDbEntity
  8
70
 62
     2
100
AcDbLine
 10
-389.94128808048
 20
-391.203949467963
 30
2.0
 11
-389.370701294988
 21
-390.633362682472
 31
2.0
  0
LINE
  5
1217
330
11F9
100
AcDbEntity
  8
70
 62
     2
100
AcDbLine
 10
-388.987927941789
 20
-390.250589329273
 30
2.0
 11
-388.472844696697
 21
-389.735506084182
 31
2.0
  0
LINE
  5
1218
330
11F9
100
AcDbEntity
  8
70
 62
     2
100
AcDbLine
 10
-388.472828209831
 20
-389.871254097264
 30
2.0
 11
-388.852151103669
 21
-390.250576991102
 31
2.0
  0
LINE
  5
1219
330
11F9
100
AcDbEntity
  8
70
 62
     2
100
AcDbLine
 10
-389.320327587795
 20
-390.718753475229
 30
2.0
 11
-389.883810357032
 21
-391.282236244465
 31
2.0
  0
LINE
  5
121A
330
11F9
100
AcDbEntity
  8
70
 62
     2
100
AcDbLine
 10
-389.826332633583
 20
-391.360523020965
 30
2.0
 11
-389.262852532348
 21
-390.797042919731
 31
2.0
  0
LINE
  5
121B
330
11F9
100
AcDbEntity
  8
70
 62
     2
100
AcDbLine
 10
-388.716374265548
 20
-390.25056465293
 30
2.0
 11
-388.472811722963
 21
-390.007002110346
 31
2.0
  0
LINE
  5
121C
330
11F9
100
AcDbEntity
  8
70
 62
     2
100
AcDbLine
 10
-388.472795236096
 20
-390.142750123427
 30
2.0
 11
-388.580597427427
 21
-390.250552314758
 31
2.0
  0
LINE
  5
121D
330
11F9
100
AcDbEntity
  8
70
 62
     2
100
AcDbLine
 10
-389.205377476901
 20
-390.875332364233
 30
2.0
 11
-389.764274981729
 21
-391.434229869061
 31
2.0
  0
LINE
  5
121E
330
11F9
100
AcDbEntity
  8
70
 62
     2
100
AcDbLine
 10
-389.695969645384
 20
-391.501689032664
 30
2.0
 11
-389.138804468503
 21
-390.944523855783
 31
2.0
  0
LINE
  5
121F
330
11F9
100
AcDbEntity
  8
70
 62
     2
100
AcDbLine
 10
-389.070914883041
 20
-391.01239877027
 30
2.0
 11
-389.627664309037
 21
-391.5691481962661
 31
2.0
  0
LINE
  5
1220
330
11F9
100
AcDbEntity
  8
70
 62
     2
100
AcDbLine
 10
-389.559358972691
 20
-391.636607359869
 30
2.0
 11
-388.999184646606
 21
-391.076433033784
 31
2.0
  0
LINE
  5
1221
330
11F9
100
AcDbEntity
  8
70
 62
     2
100
AcDbLine
 10
-388.920880185794
 20
-391.133893072921
 30
2.0
 11
-389.4854561328981
 21
-391.6984690200241
 31
2.0
  0
LINE
  5
1222
330
11F9
100
AcDbEntity
  8
70
 62
     2
100
AcDbLine
 10
-389.406301613191
 20
-391.755079000266
 30
2.0
 11
-388.842575724983
 21
-391.191353112058
 31
2.0
  0
LINE
  5
1223
330
11F9
100
AcDbEntity
  8
70
 62
     2
100
AcDbLine
 10
-388.754522492912
 20
-391.2390643799369
 30
2.0
 11
-389.327147093483
 21
-391.811688980507
 31
2.0
  0
LINE
  5
1224
330
11F9
100
AcDbEntity
  8
70
 62
     2
100
AcDbLine
 10
-389.247992573776
 20
-391.868298960749
 30
2.0
 11
-388.665300662817
 21
-391.28560704979
 31
2.0
  0
LINE
  5
1225
330
11F9
100
AcDbEntity
  8
70
 62
     2
100
AcDbLine
 10
-388.570025648734
 20
-391.326096535657
 30
2.0
 11
-389.161269343665
 21
-391.917340230587
 31
2.0
  0
LINE
  5
1226
330
11F9
100
AcDbEntity
  8
70
 62
     2
100
AcDbLine
 10
-389.0706747007531
 20
-391.962510087624
 30
2.0
 11
-388.4687799875631
 21
-391.3606153744339
 31
2.0
  0
LINE
  5
1227
330
11F9
100
AcDbEntity
  8
70
 62
     2
100
AcDbLine
 10
-388.363961765369
 20
-391.391561652189
 30
2.0
 11
-388.980080057842
 21
-392.007679944662
 31
2.0
  0
LINE
  5
1228
330
11F9
100
AcDbEntity
  8
70
 62
     2
100
AcDbLine
 10
-388.889485414931
 20
-392.052849801699
 30
2.0
 11
-388.2487310519731
 21
-391.412095438742
 31
2.0
  0
LINE
  5
1229
330
11F9
100
AcDbEntity
  8
70
 62
     2
100
AcDbLine
 10
-388.156661677606
 20
-391.4557905643241
 30
2.0
 11
-388.786714972042
 21
-392.085843858759
 31
2.0
  0
LINE
  5
122A
330
11F9
100
AcDbEntity
  8
70
 62
     2
100
AcDbLine
 10
-388.683388982818
 20
-392.118282369484
 30
2.0
 11
-388.156645328406
 21
-391.591538715072
 31
2.0
  0
LINE
  5
122B
330
11F9
100
AcDbEntity
  8
70
 62
     2
100
AcDbLine
 10
-388.156628979206
 20
-391.727286865821
 30
2.0
 11
-388.580062993594
 21
-392.150720880209
 31
2.0
  0
LINE
  5
122C
330
11F9
100
AcDbEntity
  8
70
 62
     2
100
AcDbLine
 10
-388.469306698108
 20
-392.175729084672
 30
2.0
 11
-388.156612630006
 21
-391.8630350165701
 31
2.0
  0
LINE
  5
122D
330
11F9
100
AcDbEntity
  8
70
 62
     2
100
AcDbLine
 10
-388.156596280806
 20
-391.998783167318
 30
2.0
 11
-388.3509069590619
 21
-392.1930938455751
 31
2.0
  0
LINE
  5
122E
330
11F9
100
AcDbEntity
  8
70
 62
     2
100
AcDbLine
 10
-388.232507220017
 20
-392.210458606479
 30
2.0
 11
-388.156579931606
 21
-392.134531318067
 31
2.0
  0
ENDBLK
  5
122F
330
11F9
100
AcDbEntity
  8
0
100
AcDbBlockEnd
  0
BLOCK
  5
1231
330
1230
100
AcDbEntity
  8
0
100
AcDbBlockBegin
  2
*X12
 70
     1
 10
0.0
 20
0.0
 30
0.0
  3
*X12
  1

  0
LINE
  5
1232
330
1230
100
AcDbEntity
  8
70
 62
     2
100
AcDbLine
 10
-393.240470605949
 20
-388.665258495633
 30
2.0
 11
-392.380351106853
 21
-387.805138996536
 31
2.0
  0
LINE
  5
1233
330
1230
100
AcDbEntity
  8
70
 62
     2
100
AcDbLine
 10
-392.109556735378
 20
-387.670109125011
 30
2.0
 11
-393.383152742237
 21
-388.94370513187
 31
2.0
  0
LINE
  5
1234
330
1230
100
AcDbEntity
  8
70
 62
     2
100
AcDbLine
 10
-393.44931261256
 20
-389.1456295021411
 30
2.0
 11
-391.904015163596
 21
-387.6003320531771
 31
2.0
  0
LINE
  5
1235
330
1230
100
AcDbEntity
  8
70
 62
     2
100
AcDbLine
 10
-391.709481522386
 20
-387.541562911915
 30
2.0
 11
-393.50546238431
 21
-389.33754377384
 31
2.0
  0
LINE
  5
1236
330
1230
100
AcDbEntity
  8
70
 62
     2
100
AcDbLine
 10
-393.531252584068
 20
-389.499098473546
 30
2.0
 11
-391.5503273797059
 21
-387.518173269185
 31
2.0
  0
LINE
  5
1237
330
1230
100
AcDbEntity
  8
70
 62
     2
100
AcDbLine
 10
-391.391173237027
 20
-387.494783626455
 30
2.0
 11
-393.557042783826
 21
-389.660653173253
 31
2.0
  0
LINE
  5
1238
330
1230
100
AcDbEntity
  8
70
 62
     2
100
AcDbLine
 10
-393.55819359897
 20
-389.797568488346
 30
2.0
 11
-391.352213828172
 21
-387.591588717549
 31
2.0
  0
LINE
  5
1239
330
1230
100
AcDbEntity
  8
70
 62
     2
100
AcDbLine
 10
-391.3521974328109
 20
-387.727336822135
 30
2.0
 11
-393.558190851215
 21
-389.93333024054
 31
2.0
  0
LINE
  5
123A
330
1230
100
AcDbEntity
  8
70
 62
     2
100
AcDbLine
 10
-393.554590717753
 20
-390.065494607027
 30
2.0
 11
-392.564815581068
 21
-389.0757194703421
 31
2.0
  0
LINE
  5
123B
330
1230
100
AcDbEntity
  8
70
 62
     2
100
AcDbLine
 10
-391.97740454224
 20
-388.488308431514
 30
2.0
 11
-391.352181037448
 21
-387.863084926722
 31
2.0
  0
LINE
  5
123C
330
1230
100
AcDbEntity
  8
70
 62
     2
100
AcDbLine
 10
-391.3521646420861
 20
-387.998833031309
 30
2.0
 11
-391.726145245568
 21
-388.37281363479
 31
2.0
  0
LINE
  5
123D
330
1230
100
AcDbEntity
  8
70
 62
     2
100
AcDbLine
 10
-392.680870798843
 20
-389.327539188066
 30
2.0
 11
-393.535896967918
 21
-390.182565357141
 31
2.0
  0
LINE
  5
123E
330
1230
100
AcDbEntity
  8
70
 62
     2
100
AcDbLine
 10
-393.517203218082
 20
-390.299636107255
 30
2.0
 11
-392.734451120893
 21
-389.516884010065
 31
2.0
  0
LINE
  5
123F
330
1230
100
AcDbEntity
  8
70
 62
     2
100
AcDbLine
 10
-391.535411176542
 20
-388.317844065713
 30
2.0
 11
-391.352148246724
 21
-388.134581135895
 31
2.0
  0
LINE
  5
1240
330
1230
100
AcDbEntity
  8
70
 62
     2
100
AcDbLine
 10
-391.352131851361
 20
-388.270329240482
 30
2.0
 11
-391.366798492668
 21
-388.284995881789
 31
2.0
  0
LINE
  5
1241
330
1230
100
AcDbEntity
  8
70
 62
     2
100
AcDbLine
 10
-392.7586295981269
 20
-389.676826987247
 30
2.0
 11
-393.498085189471
 21
-390.416282578592
 31
2.0
  0
LINE
  5
1242
330
1230
100
AcDbEntity
  8
70
 62
     2
100
AcDbLine
 10
-393.464576739883
 20
-390.518538628952
 30
2.0
 11
-392.772418862931
 21
-389.826380752001
 31
2.0
  0
LINE
  5
1243
330
1230
100
AcDbEntity
  8
70
 62
     2
100
AcDbLine
 10
-392.765850204521
 20
-389.955576593539
 30
2.0
 11
-393.431068290294
 21
-390.6207946793129
 31
2.0
  0
LINE
  5
1244
330
1230
100
AcDbEntity
  8
70
 62
     2
100
AcDbLine
 10
-393.3975598407061
 20
-390.723050729674
 30
2.0
 11
-392.7543960627011
 21
-390.079886951669
 31
2.0
  0
LINE
  5
1245
330
1230
100
AcDbEntity
  8
70
 62
     2
100
AcDbLine
 10
-392.734039596159
 20
-390.195294985076
 30
2.0
 11
-393.357211281824
 21
-390.8184666707399
 31
2.0
  0
LINE
  5
1246
330
1230
100
AcDbEntity
  8
70
 62
     2
100
AcDbLine
 10
-393.31110439702
 20
-390.908124285885
 30
2.0
 11
-392.704100366898
 21
-390.301120255764
 31
2.0
  0
LINE
  5
1247
330
1230
100
AcDbEntity
  8
70
 62
     2
100
AcDbLine
 10
-392.674161137638
 20
-390.406945526452
 30
2.0
 11
-393.264997512217
 21
-390.997781901031
 31
2.0
  0
LINE
  5
1248
330
1230
100
AcDbEntity
  8
70
 62
     2
100
AcDbLine
 10
-393.218890627413
 20
-391.087439516176
 30
2.0
 11
-392.631578382909
 21
-390.500127271672
 31
2.0
  0
LINE
  5
1249
330
1230
100
AcDbEntity
  8
70
 62
     2
100
AcDbLine
 10
-392.586634420172
 20
-390.590947808884
 30
2.0
 11
-393.163430787292
 21
-391.167744176004
 31
2.0
  0
LINE
  5
124A
330
1230
100
AcDbEntity
  8
70
 62
     2
100
AcDbLine
 10
-393.105953063844
 20
-391.246030952505
 30
2.0
 11
-392.541690457436
 21
-390.681768346096
 31
2.0
  0
LINE
  5
124B
330
1230
100
AcDbEntity
  8
70
 62
     2
100
AcDbLine
 10
-392.483800002083
 20
-390.759642390693
 30
2.0
 11
-393.0484753403959
 21
-391.324317729005
 31
2.0
  0
LINE
  5
124C
330
1230
100
AcDbEntity
  8
70
 62
     2
100
AcDbLine
 10
-392.990997616949
 20
-391.402604505507
 30
2.0
 11
-392.425625232976
 21
-390.837232121535
 31
2.0
  0
LINE
  5
124D
330
1230
100
AcDbEntity
  8
70
 62
     2
100
AcDbLine
 10
-392.367450463869
 20
-390.914821852376
 30
2.0
 11
-392.923119799223
 21
-391.470491187729
 31
2.0
  0
LINE
  5
124E
330
1230
100
AcDbEntity
  8
70
 62
     2
100
AcDbLine
 10
-392.854814462877
 20
-391.537950351333
 30
2.0
 11
-392.296909222484
 21
-390.980045110941
 31
2.0
  0
LINE
  5
124F
330
1230
100
AcDbEntity
  8
70
 62
     2
100
AcDbLine
 10
-392.226188985883
 20
-391.045089374288
 30
2.0
 11
-392.786509126531
 21
-391.605409514936
 31
2.0
  0
LINE
  5
1250
330
1230
100
AcDbEntity
  8
70
 62
     2
100
AcDbLine
 10
-392.717623709458
 20
-391.672288597811
 30
2.0
 11
-392.155468749283
 21
-391.110133637636
 31
2.0
  0
LINE
  5
1251
330
1230
100
AcDbEntity
  8
70
 62
     2
100
AcDbLine
 10
-392.072450606613
 20
-391.162879994916
 30
2.0
 11
-392.638469189751
 21
-391.728898578053
 31
2.0
  0
LINE
  5
1252
330
1230
100
AcDbEntity
  8
70
 62
     2
100
AcDbLine
 10
-392.559314670043
 20
-391.785508558295
 30
2.0
 11
-391.988988342656
 21
-391.215182230907
 31
2.0
  0
LINE
  5
1253
330
1230
100
AcDbEntity
  8
70
 62
     2
100
AcDbLine
 10
-391.905268876464
 20
-391.267227264664
 30
2.0
 11
-392.480160150336
 21
-391.842118538536
 31
2.0
  0
LINE
  5
1254
330
1230
100
AcDbEntity
  8
70
 62
     2
100
AcDbLine
 10
-392.398727634942
 20
-391.8964505230909
 30
2.0
 11
-391.807928647601
 21
-391.305651535751
 31
2.0
  0
LINE
  5
1255
330
1230
100
AcDbEntity
  8
70
 62
     2
100
AcDbLine
 10
-391.710588418739
 20
-391.344075806837
 30
2.0
 11
-392.308132992031
 21
-391.941620380129
 31
2.0
  0
LINE
  5
1256
330
1230
100
AcDbEntity
  8
70
 62
     2
100
AcDbLine
 10
-392.2175383491201
 20
-391.986790237167
 30
2.0
 11
-391.6092482288009
 21
-391.378500116848
 31
2.0
  0
LINE
  5
1257
330
1230
100
AcDbEntity
  8
70
 62
     2
100
AcDbLine
 10
-391.495594064178
 20
-391.400610452174
 30
2.0
 11
-392.1269437062079
 21
-392.031960094205
 31
2.0
  0
LINE
  5
1258
330
1230
100
AcDbEntity
  8
70
 62
     2
100
AcDbLine
 10
-392.030061130095
 20
-392.07084201804
 30
2.0
 11
-391.381939899556
 21
-391.4227207875
 31
2.0
  0
LINE
  5
1259
330
1230
100
AcDbEntity
  8
70
 62
     2
100
AcDbLine
 10
-391.352213868752
 20
-391.5287592566449
 30
2.0
 11
-391.926735140871
 21
-392.103280528765
 31
2.0
  0
LINE
  5
125A
330
1230
100
AcDbEntity
  8
70
 62
     2
100
AcDbLine
 10
-391.823409151647
 20
-392.13571903949
 30
2.0
 11
-391.352197519551
 21
-391.664507407393
 31
2.0
  0
LINE
  5
125B
330
1230
100
AcDbEntity
  8
70
 62
     2
100
AcDbLine
 10
-391.3521811703501
 20
-391.800255558142
 30
2.0
 11
-391.719624014479
 21
-392.16769840227
 31
2.0
  0
LINE
  5
125C
330
1230
100
AcDbEntity
  8
70
 62
     2
100
AcDbLine
 10
-391.601224275433
 20
-392.185063163173
 30
2.0
 11
-391.35216482115
 21
-391.93600370889
 31
2.0
  0
LINE
  5
125D
330
1230
100
AcDbEntity
  8
70
 62
     2
100
AcDbLine
 10
-391.35214847195
 20
-392.07175185964
 30
2.0
 11
-391.482824536388
 21
-392.202427924077
 31
2.0
  0
LINE
  5
125E
330
1230
100
AcDbEntity
  8
70
 62
     2
100
AcDbLine
 10
-391.364424797342
 20
-392.21979268498
 30
2.0
 11
-391.35213212275
 21
-392.207500010388
 31
2.0
  0
ENDBLK
  5
125F
330
1230
100
AcDbEntity
  8
0
100
AcDbBlockEnd
  0
BLOCK
  5
1261
330
1260
100
AcDbEntity
  8
0
100
AcDbBlockBegin
  2
*D13
 70
     1
 10
0.0
 20
0.0
 30
0.0
  3
*D13
  1

  0
LINE
  5
1262
330
1260
100
AcDbEntity
  8
AM_5 ( Bemassung)
440
 16777216
100
AcDbLine
 10
-368.113811609427
 20
-265.93652028051
 30
0.0
 11
-368.113811609427
 21
-225.1978167194798
 31
0.0
  0
LINE
  5
1263
330
1260
100
AcDbEntity
  8
AM_5 ( Bemassung)
440
 16777216
100
AcDbLine
 10
-563.113811609427
 20
-265.93652028051
 30
0.0
 11
-563.113811609427
 21
-225.1978167194798
 31
0.0
  0
LINE
  5
1264
330
1260
100
AcDbEntity
  8
AM_5 ( Bemassung)
440
 16777216
100
AcDbLine
 10
-380.113811609427
 20
-226.1978167194798
 30
0.0
 11
-551.113811609427
 21
-226.1978167194798
 31
0.0
  0
SOLID
  5
1265
330
1260
100
AcDbEntity
  8
AM_5 ( Bemassung)
440
 16777216
100
AcDbTrace
 10
-380.113811609427
 20
-224.1978167194798
 30
0.0
 11
-380.113811609427
 21
-228.1978167194798
 31
0.0
 12
-368.113811609427
 22
-226.1978167194798
 32
0.0
 13
-368.113811609427
 23
-226.1978167194798
 33
0.0
  0
SOLID
  5
1266
330
1260
100
AcDbEntity
  8
AM_5 ( Bemassung)
440
 16777216
100
AcDbTrace
 10
-551.113811609427
 20
-224.1978167194798
 30
0.0
 11
-551.113811609427
 21
-228.1978167194798
 31
0.0
 12
-563.113811609427
 22
-226.1978167194798
 32
0.0
 13
-563.113811609427
 23
-226.1978167194798
 33
0.0
  0
MTEXT
  5
1267
330
1260
100
AcDbEntity
  8
AM_5 ( Bemassung)
 62
     2
440
 16777216
100
AcDbMText
 10
-465.6138116094269
 20
-218.5709408668195
 30
0.0
 40
12.0
 41
0.0
 46
0.0
 71
     5
 72
     1
  1
195
 73
     1
 44
1.0
  0
POINT
  5
1268
330
1260
100
AcDbEntity
  8
DEFPOINTS
 62
     0
440
 16777216
100
AcDbPoint
 10
-368.113811609427
 20
-265.93652028051
 30
0.0
  0
POINT
  5
1269
330
1260
100
AcDbEntity
  8
DEFPOINTS
 62
     0
440
 16777216
100
AcDbPoint
 10
-563.113811609427
 20
-265.93652028051
 30
0.0
  0
POINT
  5
126A
330
1260
100
AcDbEntity
  8
DEFPOINTS
 62
     0
440
 16777216
100
AcDbPoint
 10
-563.113811609427
 20
-226.1978167194798
 30
0.0
  0
ENDBLK
  5
126B
330
1260
100
AcDbEntity
  8
0
100
AcDbBlockEnd
  0
BLOCK
  5
126D
330
126C
100
AcDbEntity
  8
0
100
AcDbBlockBegin
  2
*D14
 70
     1
 10
0.0
 20
0.0
 30
0.0
  3
*D14
  1

  0
LINE
  5
126E
330
126C
100
AcDbEntity
  8
AM_5 ( Bemassung)
440
 16777216
100
AcDbLine
 10
-556.1138116094269
 20
-258.93652028051
 30
0.0
 11
-595.3418684675393
 21
-258.93652028051
 31
0.0
  0
LINE
  5
126F
330
126C
100
AcDbEntity
  8
AM_5 ( Bemassung)
440
 16777216
100
AcDbLine
 10
-556.1138116094269
 20
-453.9365202805091
 30
0.0
 11
-595.3418684675393
 21
-453.9365202805091
 31
0.0
  0
LINE
  5
1270
330
126C
100
AcDbEntity
  8
AM_5 ( Bemassung)
440
 16777216
100
AcDbLine
 10
-594.3418684675394
 20
-270.93652028051
 30
0.0
 11
-594.3418684675394
 21
-441.936520280509
 31
0.0
  0
SOLID
  5
1271
330
126C
100
AcDbEntity
  8
AM_5 ( Bemassung)
440
 16777216
100
AcDbTrace
 10
-596.3418684675393
 20
-270.93652028051
 30
0.0
 11
-592.3418684675393
 21
-270.93652028051
 31
0.0
 12
-594.3418684675394
 22
-258.93652028051
 32
0.0
 13
-594.3418684675394
 23
-258.93652028051
 33
0.0
  0
SOLID
  5
1272
330
126C
100
AcDbEntity
  8
AM_5 ( Bemassung)
440
 16777216
100
AcDbTrace
 10
-596.3418684675393
 20
-441.936520280509
 30
0.0
 11
-592.3418684675393
 21
-441.936520280509
 31
0.0
 12
-594.3418684675394
 22
-453.9365202805091
 32
0.0
 13
-594.3418684675394
 23
-453.9365202805091
 33
0.0
  0
MTEXT
  5
1273
330
126C
100
AcDbEntity
  8
AM_5 ( Bemassung)
 62
     2
440
 16777216
100
AcDbMText
 10
-601.9687443201995
 20
-356.4365202805096
 30
0.0
 40
12.0
 41
0.0
 46
0.0
 71
     5
 72
     1
  1
195
 11
0.0000000000000001
 21
1.0
 31
0.0
 73
     1
 44
1.0
  0
POINT
  5
1274
330
126C
100
AcDbEntity
  8
DEFPOINTS
 62
     0
440
 16777216
100
AcDbPoint
 10
-556.1138116094269
 20
-258.93652028051
 30
0.0
  0
POINT
  5
1275
330
126C
100
AcDbEntity
  8
DEFPOINTS
 62
     0
440
 16777216
100
AcDbPoint
 10
-556.1138116094269
 20
-453.9365202805091
 30
0.0
  0
POINT
  5
1276
330
126C
100
AcDbEntity
  8
DEFPOINTS
 62
     0
440
 16777216
100
AcDbPoint
 10
-594.3418684675394
 20
-453.9365202805091
 30
0.0
  0
ENDBLK
  5
1277
330
126C
100
AcDbEntity
  8
0
100
AcDbBlockEnd
  0
BLOCK
  5
1279
330
1278
100
AcDbEntity
  8
0
100
AcDbBlockBegin
  2
*D15
 70
     1
 10
0.0
 20
0.0
 30
0.0
  3
*D15
  1

  0
LINE
  5
127A
330
1278
100
AcDbEntity
  8
AM_5 ( Bemassung)
440
 16777216
100
AcDbLine
 10
-197.361312204125
 20
-356.436520280509
 30
0.0
 11
-197.361312204125
 21
-226.2506874375992
 31
0.0
  0
LINE
  5
127B
330
1278
100
AcDbEntity
  8
AM_5 ( Bemassung)
440
 16777216
100
AcDbLine
 10
-318.361312204125
 20
-258.936520280509
 30
0.0
 11
-318.361312204125
 21
-226.2506874375992
 31
0.0
  0
LINE
  5
127C
330
1278
100
AcDbEntity
  8
AM_5 ( Bemassung)
440
 16777216
100
AcDbLine
 10
-209.361312204125
 20
-227.2506874375991
 30
0.0
 11
-306.361312204125
 21
-227.2506874375991
 31
0.0
  0
SOLID
  5
127D
330
1278
100
AcDbEntity
  8
AM_5 ( Bemassung)
440
 16777216
100
AcDbTrace
 10
-209.361312204125
 20
-225.2506874375992
 30
0.0
 11
-209.361312204125
 21
-229.2506874375991
 31
0.0
 12
-197.361312204125
 22
-227.2506874375991
 32
0.0
 13
-197.361312204125
 23
-227.2506874375991
 33
0.0
  0
SOLID
  5
127E
330
1278
100
AcDbEntity
  8
AM_5 ( Bemassung)
440
 16777216
100
AcDbTrace
 10
-306.361312204125
 20
-225.2506874375992
 30
0.0
 11
-306.361312204125
 21
-229.2506874375991
 31
0.0
 12
-318.361312204125
 22
-227.2506874375991
 32
0.0
 13
-318.361312204125
 23
-227.2506874375991
 33
0.0
  0
MTEXT
  5
127F
330
1278
100
AcDbEntity
  8
AM_5 ( Bemassung)
 62
     2
440
 16777216
100
AcDbMText
 10
-257.861312204125
 20
-219.7261308209552
 30
0.0
 40
12.0
 41
0.0
 46
0.0
 71
     5
 72
     1
  1
121
 73
     1
 44
1.0
  0
POINT
  5
1280
330
1278
100
AcDbEntity
  8
DEFPOINTS
 62
     0
440
 16777216
100
AcDbPoint
 10
-197.361312204125
 20
-356.436520280509
 30
0.0
  0
POINT
  5
1281
330
1278
100
AcDbEntity
  8
DEFPOINTS
 62
     0
440
 16777216
100
AcDbPoint
 10
-318.361312204125
 20
-258.936520280509
 30
0.0
  0
POINT
  5
1282
330
1278
100
AcDbEntity
  8
DEFPOINTS
 62
     0
440
 16777216
100
AcDbPoint
 10
-318.361312204125
 20
-227.2506874375991
 30
0.0
  0
ENDBLK
  5
1283
330
1278
100
AcDbEntity
  8
0
100
AcDbBlockEnd
  0
BLOCK
  5
14A6
330
14A5
100
AcDbEntity
  8
0
100
AcDbBlockBegin
  2
*D17
 70
     1
 10
0.0
 20
0.0
 30
0.0
  3
*D17
  1

  0
LINE
  5
14A8
330
14A5
100
AcDbEntity
  8
AM_5 ( Bemassung)
440
 16777216
100
AcDbLine
 10
1240.067412869155
 20
621.4765386547907
 30
0.0
 11
1240.067412869155
 21
662.2152422158209
 31
0.0
  0
LINE
  5
14A9
330
14A5
100
AcDbEntity
  8
AM_5 ( Bemassung)
440
 16777216
100
AcDbLine
 10
1045.067412869155
 20
621.4765386547907
 30
0.0
 11
1045.067412869155
 21
662.2152422158209
 31
0.0
  0
LINE
  5
14AA
330
14A5
100
AcDbEntity
  8
AM_5 ( Bemassung)
440
 16777216
100
AcDbLine
 10
1228.067412869155
 20
661.2152422158209
 30
0.0
 11
1057.067412869155
 21
661.2152422158209
 31
0.0
  0
SOLID
  5
14AB
330
14A5
100
AcDbEntity
  8
AM_5 ( Bemassung)
440
 16777216
100
AcDbTrace
 10
1228.067412869155
 20
663.2152422158209
 30
0.0
 11
1228.067412869155
 21
659.2152422158209
 31
0.0
 12
1240.067412869155
 22
661.2152422158209
 32
0.0
 13
1240.067412869155
 23
661.2152422158209
 33
0.0
  0
SOLID
  5
14AC
330
14A5
100
AcDbEntity
  8
AM_5 ( Bemassung)
440
 16777216
100
AcDbTrace
 10
1057.067412869155
 20
663.2152422158209
 30
0.0
 11
1057.067412869155
 21
659.2152422158209
 31
0.0
 12
1045.067412869155
 22
661.2152422158209
 32
0.0
 13
1045.067412869155
 23
661.2152422158209
 33
0.0
  0
MTEXT
  5
14AD
330
14A5
100
AcDbEntity
  8
AM_5 ( Bemassung)
 62
     2
440
 16777216
100
AcDbMText
 10
1142.567412869155
 20
668.8421180684812
 30
0.0
 40
12.0
 41
0.0
 46
0.0
 71
     5
 72
     1
  1
195
 73
     1
 44
1.0
  0
POINT
  5
14AE
330
14A5
100
AcDbEntity
  8
DEFPOINTS
 62
     0
440
 16777216
100
AcDbPoint
 10
1240.067412869155
 20
621.4765386547907
 30
0.0
  0
POINT
  5
14AF
330
14A5
100
AcDbEntity
  8
DEFPOINTS
 62
     0
440
 16777216
100
AcDbPoint
 10
1045.067412869155
 20
621.4765386547907
 30
0.0
  0
POINT
  5
14B0
330
14A5
100
AcDbEntity
  8
DEFPOINTS
 62
     0
440
 16777216
100
AcDbPoint
 10
1045.067412869155
 20
661.2152422158209
 30
0.0
  0
ENDBLK
  5
14A7
330
14A5
100
AcDbEntity
  8
0
100
AcDbBlockEnd
  0
BLOCK
  5
14B2
330
14B1
100
AcDbEntity
  8
0
100
AcDbBlockBegin
  2
*D18
 70
     1
 10
0.0
 20
0.0
 30
0.0
  3
*D18
  1

  0
LINE
  5
14B4
330
14B1
100
AcDbEntity
  8
AM_5 ( Bemassung)
440
 16777216
100
AcDbLine
 10
1052.067412869155
 20
628.4765386547907
 30
0.0
 11
1012.839356011043
 21
628.4765386547907
 31
0.0
  0
LINE
  5
14B5
330
14B1
100
AcDbEntity
  8
AM_5 ( Bemassung)
440
 16777216
100
AcDbLine
 10
1052.067412869155
 20
433.4765386547916
 30
0.0
 11
1012.839356011043
 21
433.4765386547916
 31
0.0
  0
LINE
  5
14B6
330
14B1
100
AcDbEntity
  8
AM_5 ( Bemassung)
440
 16777216
100
AcDbLine
 10
1013.839356011043
 20
616.4765386547907
 30
0.0
 11
1013.839356011043
 21
445.4765386547916
 31
0.0
  0
SOLID
  5
14B7
330
14B1
100
AcDbEntity
  8
AM_5 ( Bemassung)
440
 16777216
100
AcDbTrace
 10
1011.839356011043
 20
616.4765386547907
 30
0.0
 11
1015.839356011043
 21
616.4765386547907
 31
0.0
 12
1013.839356011043
 22
628.4765386547907
 32
0.0
 13
1013.839356011043
 23
628.4765386547907
 33
0.0
  0
SOLID
  5
14B8
330
14B1
100
AcDbEntity
  8
AM_5 ( Bemassung)
440
 16777216
100
AcDbTrace
 10
1011.839356011043
 20
445.4765386547916
 30
0.0
 11
1015.839356011043
 21
445.4765386547916
 31
0.0
 12
1013.839356011043
 22
433.4765386547916
 32
0.0
 13
1013.839356011043
 23
433.4765386547916
 33
0.0
  0
MTEXT
  5
14B9
330
14B1
100
AcDbEntity
  8
AM_5 ( Bemassung)
 62
     2
440
 16777216
100
AcDbMText
 10
1006.212480158382
 20
530.9765386547913
 30
0.0
 40
12.0
 41
0.0
 46
0.0
 71
     5
 72
     1
  1
195
 11
0.0000000000000001
 21
1.0
 31
0.0
 73
     1
 44
1.0
  0
POINT
  5
14BA
330
14B1
100
AcDbEntity
  8
DEFPOINTS
 62
     0
440
 16777216
100
AcDbPoint
 10
1052.067412869155
 20
628.4765386547907
 30
0.0
  0
POINT
  5
14BB
330
14B1
100
AcDbEntity
  8
DEFPOINTS
 62
     0
440
 16777216
100
AcDbPoint
 10
1052.067412869155
 20
433.4765386547916
 30
0.0
  0
POINT
  5
14BC
330
14B1
100
AcDbEntity
  8
DEFPOINTS
 62
     0
440
 16777216
100
AcDbPoint
 10
1013.839356011043
 20
433.4765386547916
 30
0.0
  0
ENDBLK
  5
14B3
330
14B1
100
AcDbEntity
  8
0
100
AcDbBlockEnd
  0
BLOCK
  5
14BE
330
14BD
100
AcDbEntity
  8
0
100
AcDbBlockBegin
  2
*D19
 70
     1
 10
0.0
 20
0.0
 30
0.0
  3
*D19
  1

  0
LINE
  5
14C0
330
14BD
100
AcDbEntity
  8
AM_5 ( Bemassung)
440
 16777216
100
AcDbLine
 10
1410.819912274457
 20
530.9765386547915
 30
0.0
 11
1410.819912274457
 21
661.1623714977015
 31
0.0
  0
LINE
  5
14C1
330
14BD
100
AcDbEntity
  8
AM_5 ( Bemassung)
440
 16777216
100
AcDbLine
 10
1289.819912274457
 20
628.4765386547916
 30
0.0
 11
1289.819912274457
 21
661.1623714977015
 31
0.0
  0
LINE
  5
14C2
330
14BD
100
AcDbEntity
  8
AM_5 ( Bemassung)
440
 16777216
100
AcDbLine
 10
1398.819912274457
 20
660.1623714977015
 30
0.0
 11
1301.819912274457
 21
660.1623714977015
 31
0.0
  0
SOLID
  5
14C3
330
14BD
100
AcDbEntity
  8
AM_5 ( Bemassung)
440
 16777216
100
AcDbTrace
 10
1398.819912274457
 20
662.1623714977015
 30
0.0
 11
1398.819912274457
 21
658.1623714977015
 31
0.0
 12
1410.819912274457
 22
660.1623714977015
 32
0.0
 13
1410.819912274457
 23
660.1623714977015
 33
0.0
  0
SOLID
  5
14C4
330
14BD
100
AcDbEntity
  8
AM_5 ( Bemassung)
440
 16777216
100
AcDbTrace
 10
1301.819912274457
 20
662.1623714977015
 30
0.0
 11
1301.819912274457
 21
658.1623714977015
 31
0.0
 12
1289.819912274457
 22
660.1623714977015
 32
0.0
 13
1289.819912274457
 23
660.1623714977015
 33
0.0
  0
MTEXT
  5
14C5
330
14BD
100
AcDbEntity
  8
AM_5 ( Bemassung)
 62
     2
440
 16777216
100
AcDbMText
 10
1350.319912274457
 20
667.6869281143455
 30
0.0
 40
12.0
 41
0.0
 46
0.0
 71
     5
 72
     1
  1
121
 73
     1
 44
1.0
  0
POINT
  5
14C6
330
14BD
100
AcDbEntity
  8
DEFPOINTS
 62
     0
440
 16777216
100
AcDbPoint
 10
1410.819912274457
 20
530.9765386547915
 30
0.0
  0
POINT
  5
14C7
330
14BD
100
AcDbEntity
  8
DEFPOINTS
 62
     0
440
 16777216
100
AcDbPoint
 10
1289.819912274457
 20
628.4765386547916
 30
0.0
  0
POINT
  5
14C8
330
14BD
100
AcDbEntity
  8
DEFPOINTS
 62
     0
440
 16777216
100
AcDbPoint
 10
1289.819912274457
 20
660.1623714977015
 30
0.0
  0
ENDBLK
  5
14BF
330
14BD
100
AcDbEntity
  8
0
100
AcDbBlockEnd
  0
ENDSEC
  0
SECTION
  2
ENTITIES
  0
LINE
  5
1398
330
74
100
AcDbEntity
  8
AM_0 ( Kontur 0.5 )
100
AcDbLine
 10
1186.45898080464
 20
514.7085894623598
 30
0.0
 11
1186.45898080464
 21
560.7085894623597
 31
0.0
  0
LINE
  5
1399
102
{ACAD_REACTORS
330
1465
102
}
330
74
100
AcDbEntity
  8
AM_0 ( Kontur 0.5 )
100
AcDbLine
 10
1240.067412869155
 20
440.4765386547916
 30
0.0
 11
1240.067412869155
 21
621.4765386547907
 31
0.0
  0
LINE
  5
139A
102
{ACAD_REACTORS
330
1465
102
}
330
74
100
AcDbEntity
  8
AM_0 ( Kontur 0.5 )
100
AcDbLine
 10
1045.067412869155
 20
440.4765386547916
 30
0.0
 11
1045.067412869155
 21
621.4765386547916
 31
0.0
  0
LINE
  5
139B
102
{ACAD_REACTORS
330
1468
102
}
330
74
100
AcDbEntity
  8
AM_0 ( Kontur 0.5 )
100
AcDbLine
 10
1052.067412869155
 20
433.4765386547916
 30
0.0
 11
1233.067412869155
 21
433.4765386547916
 31
0.0
  0
LINE
  5
139C
102
{ACAD_REACTORS
330
1468
102
}
330
74
100
AcDbEntity
  8
AM_0 ( Kontur 0.5 )
100
AcDbLine
 10
1052.067412869155
 20
628.4765386547907
 30
0.0
 11
1233.067412869155
 21
628.4765386547907
 31
0.0
  0
LINE
  5
139D
330
74
100
AcDbEntity
  8
AM_0 ( Kontur 0.5 )
100
AcDbLine
 10
1240.067412869155
 20
589.9765386547908
 30
0.0
 11
1045.067412869155
 21
589.9765386547908
 31
0.0
  0
LINE
  5
139E
330
74
100
AcDbEntity
  8
AM_0 ( Kontur 0.5 )
100
AcDbLine
 10
1240.067412869155
 20
471.9765386547916
 30
0.0
 11
1045.067412869155
 21
471.9765386547916
 31
0.0
  0
LINE
  5
139F
330
74
100
AcDbEntity
  8
AM_0 ( Kontur 0.5 )
100
AcDbLine
 10
1238.067412869155
 20
587.9765386547908
 30
0.0
 11
1047.067412869155
 21
587.9765386547908
 31
0.0
  0
LINE
  5
13A0
330
74
100
AcDbEntity
  8
AM_0 ( Kontur 0.5 )
100
AcDbLine
 10
1238.067412869155
 20
473.9765386547916
 30
0.0
 11
1047.067412869155
 21
473.9765386547916
 31
0.0
  0
LINE
  5
13A1
330
74
100
AcDbEntity
  8
AM_0 ( Kontur 0.5 )
100
AcDbLine
 10
1232.067412869155
 20
571.9765386547907
 30
0.0
 11
1228.067412869155
 21
571.9765386547907
 31
0.0
  0
LINE
  5
13A2
330
74
100
AcDbEntity
  8
AM_0 ( Kontur 0.5 )
100
AcDbLine
 10
1232.067412869155
 20
489.9765386547916
 30
0.0
 11
1228.067412869155
 21
489.9765386547916
 31
0.0
  0
LINE
  5
13A3
330
74
100
AcDbEntity
  8
AM_0 ( Kontur 0.5 )
100
AcDbLine
 10
1232.067412869155
 20
489.9765386547916
 30
0.0
 11
1232.067412869155
 21
571.9765386547907
 31
0.0
  0
LINE
  5
13A4
330
74
100
AcDbEntity
  8
AM_0 ( Kontur 0.5 )
100
AcDbLine
 10
1228.067412869155
 20
489.9765386547916
 30
0.0
 11
1228.067412869155
 21
571.9765386547907
 31
0.0
  0
LINE
  5
13A5
330
74
100
AcDbEntity
  8
AM_0 ( Kontur 0.5 )
100
AcDbLine
 10
1231.067412869155
 20
489.9765386547916
 30
0.0
 11
1231.067412869155
 21
571.9765386547907
 31
0.0
  0
LINE
  5
13A6
330
74
100
AcDbEntity
  8
AM_0 ( Kontur 0.5 )
100
AcDbLine
 10
1219.067412869155
 20
581.9765386547906
 30
0.0
 11
1066.067412869155
 21
581.9765386547906
 31
0.0
  0
LINE
  5
13A7
330
74
100
AcDbEntity
  8
AM_0 ( Kontur 0.5 )
100
AcDbLine
 10
1226.567412869155
 20
556.6464116358686
 30
0.0
 11
1226.567412869155
 21
530.9765386547907
 31
0.0
  0
LINE
  5
13A8
330
74
100
AcDbEntity
  8
AM_0 ( Kontur 0.5 )
100
AcDbLine
 10
1058.567412869155
 20
556.6464116358686
 30
0.0
 11
1058.567412869155
 21
530.9765386547907
 31
0.0
  0
LINE
  5
13A9
330
74
100
AcDbEntity
  8
AM_0 ( Kontur 0.5 )
100
AcDbLine
 10
1224.067412869155
 20
576.9765386547907
 30
0.0
 11
1224.067412869155
 21
560.9765386547906
 31
0.0
  0
LINE
  5
13AA
330
74
100
AcDbEntity
  8
AM_0 ( Kontur 0.5 )
100
AcDbLine
 10
1061.067412869155
 20
576.9765386547907
 30
0.0
 11
1061.067412869155
 21
560.9765386547906
 31
0.0
  0
ARC
  5
13AB
330
74
100
AcDbEntity
  8
AM_0 ( Kontur 0.5 )
100
AcDbCircle
 10
1066.067412869155
 20
576.9765386547907
 30
0.0
 40
5.0
100
AcDbArc
 50
90.0
 51
180.0
  0
ARC
  5
13AC
330
74
100
AcDbEntity
  8
AM_0 ( Kontur 0.5 )
100
AcDbCircle
 10
1219.067412869155
 20
576.9765386547907
 30
0.0
 40
5.0
100
AcDbArc
 50
0.0
 51
90.0
  0
LINE
  5
13AD
330
74
100
AcDbEntity
  8
AM_0 ( Kontur 0.5 )
100
AcDbLine
 10
1224.067412869155
 20
560.9765386547906
 30
0.0
 11
1226.567412869155
 21
556.6464116358686
 31
0.0
  0
LINE
  5
13AE
330
74
100
AcDbEntity
  8
AM_0 ( Kontur 0.5 )
100
AcDbLine
 10
1061.067412869155
 20
560.9765386547906
 30
0.0
 11
1058.567412869155
 21
556.6464116358686
 31
0.0
  0
LINE
  5
13AF
330
74
100
AcDbEntity
  8
AM_0 ( Kontur 0.5 )
100
AcDbLine
 10
1226.567412869155
 20
505.3066656737136
 30
0.0
 11
1226.567412869155
 21
530.9765386547907
 31
0.0
  0
LINE
  5
13B0
330
74
100
AcDbEntity
  8
AM_0 ( Kontur 0.5 )
100
AcDbLine
 10
1224.067412869155
 20
500.9765386547916
 30
0.0
 11
1226.567412869155
 21
505.3066656737136
 31
0.0
  0
LINE
  5
13B1
330
74
100
AcDbEntity
  8
AM_0 ( Kontur 0.5 )
100
AcDbLine
 10
1224.067412869155
 20
484.9765386547916
 30
0.0
 11
1224.067412869155
 21
500.9765386547916
 31
0.0
  0
ARC
  5
13B2
330
74
100
AcDbEntity
  8
AM_0 ( Kontur 0.5 )
100
AcDbCircle
 10
-1219.067412869155
 20
484.9765386547916
 30
0.0
 40
5.0
210
0.0
220
0.0
230
-1.0
100
AcDbArc
 50
180.0
 51
270.0
  0
LINE
  5
13B3
330
74
100
AcDbEntity
  8
AM_0 ( Kontur 0.5 )
100
AcDbLine
 10
1219.067412869155
 20
479.9765386547916
 30
0.0
 11
1066.067412869155
 21
479.9765386547916
 31
0.0
  0
ARC
  5
13B4
330
74
100
AcDbEntity
  8
AM_0 ( Kontur 0.5 )
100
AcDbCircle
 10
-1066.067412869155
 20
484.9765386547916
 30
0.0
 40
5.0
210
0.0
220
0.0
230
-1.0
100
AcDbArc
 50
270.0
 51
0.0
  0
LINE
  5
13B5
330
74
100
AcDbEntity
  8
AM_0 ( Kontur 0.5 )
100
AcDbLine
 10
1061.067412869155
 20
484.9765386547916
 30
0.0
 11
1061.067412869155
 21
500.9765386547916
 31
0.0
  0
LINE
  5
13B6
330
74
100
AcDbEntity
  8
AM_0 ( Kontur 0.5 )
100
AcDbLine
 10
1061.067412869155
 20
500.9765386547916
 30
0.0
 11
1058.567412869155
 21
505.3066656737136
 31
0.0
  0
LINE
  5
13B7
330
74
100
AcDbEntity
  8
AM_0 ( Kontur 0.5 )
100
AcDbLine
 10
1058.567412869155
 20
505.3066656737136
 30
0.0
 11
1058.567412869155
 21
530.9765386547907
 31
0.0
  0
LINE
  5
13B8
330
74
100
AcDbEntity
  8
AM_0 ( Kontur 0.5 )
100
AcDbLine
 10
1062.067412869155
 20
560.7085894623597
 30
0.0
 11
1059.567412869155
 21
556.3784624434377
 31
0.0
  0
LINE
  5
13B9
330
74
100
AcDbEntity
  8
AM_0 ( Kontur 0.5 )
100
AcDbLine
 10
1062.067412869155
 20
576.9765386547907
 30
0.0
 11
1062.067412869155
 21
560.7085894623597
 31
0.0
  0
ARC
  5
13BA
330
74
100
AcDbEntity
  8
AM_0 ( Kontur 0.5 )
100
AcDbCircle
 10
1066.067412869155
 20
576.9765386547907
 30
0.0
 40
4.0
100
AcDbArc
 50
90.0
 51
180.0
  0
LINE
  5
13BB
330
74
100
AcDbEntity
  8
AM_0 ( Kontur 0.5 )
100
AcDbLine
 10
1219.067412869155
 20
580.9765386547907
 30
0.0
 11
1066.067412869155
 21
580.9765386547907
 31
0.0
  0
ARC
  5
13BC
330
74
100
AcDbEntity
  8
AM_0 ( Kontur 0.5 )
100
AcDbCircle
 10
1219.067412869155
 20
576.9765386547907
 30
0.0
 40
4.0
100
AcDbArc
 50
0.0
 51
90.0
  0
LINE
  5
13BD
330
74
100
AcDbEntity
  8
AM_0 ( Kontur 0.5 )
100
AcDbLine
 10
1223.067412869155
 20
576.9765386547907
 30
0.0
 11
1223.067412869155
 21
560.7085894623597
 31
0.0
  0
LINE
  5
13BE
330
74
100
AcDbEntity
  8
AM_0 ( Kontur 0.5 )
100
AcDbLine
 10
1223.067412869155
 20
560.7085894623597
 30
0.0
 11
1225.567412869155
 21
556.3784624434377
 31
0.0
  0
LINE
  5
13BF
330
74
100
AcDbEntity
  8
AM_0 ( Kontur 0.5 )
100
AcDbLine
 10
1225.567412869155
 20
556.3784624434377
 30
0.0
 11
1225.567412869155
 21
530.9765386547907
 31
0.0
  0
LINE
  5
13C0
330
74
100
AcDbEntity
  8
AM_0 ( Kontur 0.5 )
100
AcDbLine
 10
1225.567412869155
 20
505.5746148661446
 30
0.0
 11
1225.567412869155
 21
530.9765386547907
 31
0.0
  0
LINE
  5
13C1
330
74
100
AcDbEntity
  8
AM_0 ( Kontur 0.5 )
100
AcDbLine
 10
1223.067412869155
 20
501.2444878472226
 30
0.0
 11
1225.567412869155
 21
505.5746148661446
 31
0.0
  0
LINE
  5
13C2
330
74
100
AcDbEntity
  8
AM_0 ( Kontur 0.5 )
100
AcDbLine
 10
1223.067412869155
 20
484.9765386547916
 30
0.0
 11
1223.067412869155
 21
501.2444878472226
 31
0.0
  0
ARC
  5
13C3
330
74
100
AcDbEntity
  8
AM_0 ( Kontur 0.5 )
100
AcDbCircle
 10
-1219.067412869155
 20
484.9765386547916
 30
0.0
 40
4.0
210
0.0
220
0.0
230
-1.0
100
AcDbArc
 50
180.0
 51
270.0
  0
LINE
  5
13C4
330
74
100
AcDbEntity
  8
AM_0 ( Kontur 0.5 )
100
AcDbLine
 10
1219.067412869155
 20
480.9765386547915
 30
0.0
 11
1066.067412869155
 21
480.9765386547915
 31
0.0
  0
ARC
  5
13C5
330
74
100
AcDbEntity
  8
AM_0 ( Kontur 0.5 )
100
AcDbCircle
 10
-1066.067412869155
 20
484.9765386547916
 30
0.0
 40
4.0
210
0.0
220
0.0
230
-1.0
100
AcDbArc
 50
270.0
 51
0.0
  0
LINE
  5
13C6
330
74
100
AcDbEntity
  8
AM_0 ( Kontur 0.5 )
100
AcDbLine
 10
1062.067412869155
 20
484.9765386547916
 30
0.0
 11
1062.067412869155
 21
501.2444878472226
 31
0.0
  0
LINE
  5
13C7
330
74
100
AcDbEntity
  8
AM_0 ( Kontur 0.5 )
100
AcDbLine
 10
1062.067412869155
 20
501.2444878472226
 30
0.0
 11
1059.567412869155
 21
505.5746148661446
 31
0.0
  0
LINE
  5
13C8
330
74
100
AcDbEntity
  8
AM_0 ( Kontur 0.5 )
100
AcDbLine
 10
1059.567412869155
 20
505.5746148661446
 30
0.0
 11
1059.567412869155
 21
530.9765386547907
 31
0.0
  0
LINE
  5
13C9
330
74
100
AcDbEntity
  8
AM_0 ( Kontur 0.5 )
100
AcDbLine
 10
1059.567412869155
 20
556.3784624434377
 30
0.0
 11
1059.567412869155
 21
530.9765386547907
 31
0.0
  0
LINE
  5
13CA
330
74
100
AcDbEntity
  8
AM_2 ( Kontur 0.25)
100
AcDbLine
 10
1146.567412869155
 20
628.4765386547907
 30
0.0
 11
1146.567412869155
 21
580.9765386547907
 31
0.0
  0
LINE
  5
13CB
330
74
100
AcDbEntity
  8
AM_2 ( Kontur 0.25)
100
AcDbLine
 10
1146.567412869155
 20
473.9765386547916
 30
0.0
 11
1146.567412869155
 21
453.1734641488627
 31
0.0
  0
LINE
  5
13CC
330
74
100
AcDbEntity
  8
AM_2 ( Kontur 0.25)
100
AcDbLine
 10
1138.567412869155
 20
628.4765386547907
 30
0.0
 11
1138.567412869155
 21
580.9765386547907
 31
0.0
  0
LINE
  5
13CD
330
74
100
AcDbEntity
  8
AM_2 ( Kontur 0.25)
100
AcDbLine
 10
1138.567412869155
 20
474.9765386547916
 30
0.0
 11
1138.567412869155
 21
453.1734641488627
 31
0.0
  0
LINE
  5
13CE
330
74
100
AcDbEntity
  8
AM_0 ( Kontur 0.5 )
100
AcDbLine
 10
1047.067412869155
 20
473.9765386547916
 30
0.0
 11
1047.067412869155
 21
587.9765386547908
 31
0.0
  0
LINE
  5
13CF
330
74
100
AcDbEntity
  8
AM_0 ( Kontur 0.5 )
100
AcDbLine
 10
1238.067412869155
 20
473.9765386547916
 30
0.0
 11
1238.067412869155
 21
587.9765386547908
 31
0.0
  0
LINE
  5
13D0
330
74
100
AcDbEntity
  8
AM_0 ( Kontur 0.5 )
100
AcDbLine
 10
1237.067412869155
 20
586.9765386547907
 30
0.0
 11
1048.067412869155
 21
586.9765386547907
 31
0.0
  0
LINE
  5
13D1
330
74
100
AcDbEntity
  8
AM_0 ( Kontur 0.5 )
100
AcDbLine
 10
1048.067412869155
 20
474.9765386547916
 30
0.0
 11
1048.067412869155
 21
586.9765386547907
 31
0.0
  0
LINE
  5
13D2
330
74
100
AcDbEntity
  8
AM_0 ( Kontur 0.5 )
100
AcDbLine
 10
1237.067412869155
 20
474.9765386547916
 30
0.0
 11
1048.067412869155
 21
474.9765386547916
 31
0.0
  0
LINE
  5
13D3
330
74
100
AcDbEntity
  8
AM_0 ( Kontur 0.5 )
100
AcDbLine
 10
1237.067412869155
 20
474.9765386547916
 30
0.0
 11
1237.067412869155
 21
586.9765386547907
 31
0.0
  0
LINE
  5
13D4
330
74
100
AcDbEntity
  8
AM_2 ( Kontur 0.25)
100
AcDbLine
 10
1118.870487375084
 20
433.4765386547916
 30
0.0
 11
1138.567412869155
 21
453.1734641488627
 31
0.0
  0
LINE
  5
13D5
330
74
100
AcDbEntity
  8
AM_2 ( Kontur 0.25)
100
AcDbLine
 10
1166.264338363226
 20
433.4765386547916
 30
0.0
 11
1146.567412869155
 21
453.1734641488627
 31
0.0
  0
ARC
  5
13D6
102
{ACAD_REACTORS
330
1468
102
}
330
74
100
AcDbEntity
  8
AM_0 ( Kontur 0.5 )
100
AcDbCircle
 10
1052.067412869155
 20
440.4765386547916
 30
0.0
 40
7.0
100
AcDbArc
 50
180.0
 51
270.0
  0
CIRCLE
  5
13D7
330
74
100
AcDbEntity
  8
AM_0 ( Kontur 0.5 )
100
AcDbCircle
 10
1052.067412869155
 20
440.4765386547916
 30
0.0
 40
6.0
  0
ARC
  5
13D8
330
74
100
AcDbEntity
  8
AM_0 ( Kontur 0.5 )
100
AcDbCircle
 10
1233.067412869155
 20
440.4765386547916
 30
0.0
 40
7.0
100
AcDbArc
 50
270.0
 51
0.0
  0
ARC
  5
13D9
102
{ACAD_REACTORS
330
1465
102
}
330
74
100
AcDbEntity
  8
AM_0 ( Kontur 0.5 )
100
AcDbCircle
 10
1233.067412869155
 20
621.4765386547907
 30
0.0
 40
7.0
100
AcDbArc
 50
0.0
 51
90.0
  0
ARC
  5
13DA
102
{ACAD_REACTORS
330
1465
330
1468
102
}
330
74
100
AcDbEntity
  8
AM_0 ( Kontur 0.5 )
100
AcDbCircle
 10
1052.067412869155
 20
621.4765386547907
 30
0.0
 40
7.0
100
AcDbArc
 50
90.0
 51
180.0
  0
LINE
  5
13DB
330
74
100
AcDbEntity
  8
AM_0 ( Kontur 0.5 )
100
AcDbLine
 10
1048.208787207989
 20
437.2967575291496
 30
0.0
 11
1056.779000556978
 21
442.1501399991856
 31
0.0
  0
CIRCLE
  5
13DC
330
74
100
AcDbEntity
  8
AM_0 ( Kontur 0.5 )
100
AcDbCircle
 10
1052.067412869155
 20
440.4765386547916
 30
0.0
 40
5.0
  0
LINE
  5
13DD
330
74
100
AcDbEntity
  8
AM_0 ( Kontur 0.5 )
100
AcDbLine
 10
1047.271138013987
 20
439.0638293734167
 30
0.0
 11
1055.745859701506
 21
443.8631341283556
 31
0.0
  0
LINE
  5
13DE
330
74
100
AcDbEntity
  8
AM_0 ( Kontur 0.5 )
100
AcDbLine
 10
1236.926038530321
 20
437.2967575291496
 30
0.0
 11
1228.355825181332
 21
442.1501399991856
 31
0.0
  0
LINE
  5
13DF
330
74
100
AcDbEntity
  8
AM_0 ( Kontur 0.5 )
100
AcDbLine
 10
1237.863687724323
 20
439.0638293734167
 30
0.0
 11
1229.388966036804
 21
443.8631341283556
 31
0.0
  0
CIRCLE
  5
13E0
330
74
100
AcDbEntity
  8
AM_0 ( Kontur 0.5 )
100
AcDbCircle
 10
-1233.067412869155
 20
440.4765386547916
 30
0.0
 40
5.0
210
0.0
220
0.0
230
-1.0
  0
CIRCLE
  5
13E1
330
74
100
AcDbEntity
  8
AM_0 ( Kontur 0.5 )
100
AcDbCircle
 10
-1233.067412869155
 20
440.4765386547916
 30
0.0
 40
6.0
210
0.0
220
0.0
230
-1.0
  0
LINE
  5
13E2
330
74
100
AcDbEntity
  8
AM_0 ( Kontur 0.5 )
100
AcDbLine
 10
1048.208787207989
 20
624.6563197804337
 30
0.0
 11
1056.779000556978
 21
619.8029373103967
 31
0.0
  0
LINE
  5
13E3
330
74
100
AcDbEntity
  8
AM_0 ( Kontur 0.5 )
100
AcDbLine
 10
1047.271138013987
 20
622.8892479361656
 30
0.0
 11
1055.745859701506
 21
618.0899431812266
 31
0.0
  0
CIRCLE
  5
13E4
330
74
100
AcDbEntity
  8
AM_0 ( Kontur 0.5 )
100
AcDbCircle
 10
-1052.067412869155
 20
621.4765386547907
 30
0.0
 40
5.0
210
0.0
220
0.0
230
-1.0
  0
CIRCLE
  5
13E5
330
74
100
AcDbEntity
  8
AM_0 ( Kontur 0.5 )
100
AcDbCircle
 10
-1052.067412869155
 20
621.4765386547907
 30
0.0
 40
6.0
210
0.0
220
0.0
230
-1.0
  0
LINE
  5
13E6
330
74
100
AcDbEntity
  8
AM_0 ( Kontur 0.5 )
100
AcDbLine
 10
1236.926038530321
 20
624.6563197804337
 30
0.0
 11
1228.355825181332
 21
619.8029373103967
 31
0.0
  0
LINE
  5
13E7
330
74
100
AcDbEntity
  8
AM_0 ( Kontur 0.5 )
100
AcDbLine
 10
1237.863687724323
 20
622.8892479361656
 30
0.0
 11
1229.388966036804
 21
618.0899431812266
 31
0.0
  0
CIRCLE
  5
13E8
330
74
100
AcDbEntity
  8
AM_0 ( Kontur 0.5 )
100
AcDbCircle
 10
1233.067412869155
 20
621.4765386547907
 30
0.0
 40
5.0
  0
CIRCLE
  5
13E9
330
74
100
AcDbEntity
  8
AM_0 ( Kontur 0.5 )
100
AcDbCircle
 10
1233.067412869155
 20
621.4765386547907
 30
0.0
 40
6.0
  0
LINE
  5
13EA
330
74
100
AcDbEntity
  8
AM_0 ( Kontur 0.5 )
100
AcDbLine
 10
1290.819912274457
 20
433.4765386547916
 30
0.0
 11
1290.819912274457
 21
628.4765386547916
 31
0.0
  0
LINE
  5
13EB
102
{ACAD_REACTORS
330
146C
102
}
330
74
100
AcDbEntity
  8
AM_0 ( Kontur 0.5 )
100
AcDbLine
 10
1289.819912274457
 20
628.4765386547916
 30
0.0
 11
1403.819912274457
 21
628.4765386547916
 31
0.0
  0
LINE
  5
13EC
330
74
100
AcDbEntity
  8
AM_0 ( Kontur 0.5 )
100
AcDbLine
 10
1289.819912274457
 20
433.4765386547916
 30
0.0
 11
1403.819912274457
 21
433.4765386547916
 31
0.0
  0
LINE
  5
13ED
330
74
100
AcDbEntity
  8
AM_0 ( Kontur 0.5 )
100
AcDbLine
 10
1403.819912274457
 20
433.4765386547916
 30
0.0
 11
1403.819912274457
 21
628.4765386547907
 31
0.0
  0
LINE
  5
13EE
330
74
100
AcDbEntity
  8
AM_0 ( Kontur 0.5 )
100
AcDbLine
 10
1362.819912274457
 20
433.4765386547916
 30
0.0
 11
1362.819912274457
 21
628.4765386547916
 31
0.0
  0
LINE
  5
13EF
330
74
100
AcDbEntity
  8
AM_0 ( Kontur 0.5 )
100
AcDbLine
 10
1360.819912274457
 20
433.4765386547916
 30
0.0
 11
1360.819912274457
 21
628.4765386547916
 31
0.0
  0
ARC
  5
13F0
102
{ACAD_REACTORS
330
146C
102
}
330
74
100
AcDbEntity
  8
AM_0 ( Kontur 0.5 )
100
AcDbCircle
 10
728.3020551315991
 20
530.9765386547915
 30
0.0
 40
682.517857142858
100
AcDbArc
 50
351.7870056696594
 51
8.212994330340604
  0
LINE
  5
13F1
330
74
100
AcDbEntity
  8
AM_0 ( Kontur 0.5 )
100
AcDbLine
 10
1393.819912274457
 20
589.9765386547908
 30
0.0
 11
1403.819912274457
 21
589.9765386547908
 31
0.0
  0
LINE
  5
13F2
330
74
100
AcDbEntity
  8
AM_0 ( Kontur 0.5 )
100
AcDbLine
 10
1393.819912274457
 20
471.9765386547916
 30
0.0
 11
1403.819912274457
 21
471.9765386547916
 31
0.0
  0
LINE
  5
13F3
330
74
100
AcDbEntity
  8
AM_0 ( Kontur 0.5 )
100
AcDbLine
 10
1393.819912274457
 20
471.9765386547916
 30
0.0
 11
1393.819912274457
 21
589.9765386547908
 31
0.0
  0
LINE
  5
13F4
102
{ACAD_REACTORS
330
146C
102
}
330
74
100
AcDbEntity
  8
AM_0 ( Kontur 0.5 )
100
AcDbLine
 10
1289.819912274457
 20
603.4765386547916
 30
0.0
 11
1289.819912274457
 21
628.4765386547916
 31
0.0
  0
LINE
  5
13F5
330
74
100
AcDbEntity
  8
AM_0 ( Kontur 0.5 )
100
AcDbLine
 10
1290.819912274457
 20
468.4765386547915
 30
0.0
 11
1289.819912274457
 21
458.4765386547916
 31
0.0
  0
LINE
  5
13F6
330
74
100
AcDbEntity
  8
AM_0 ( Kontur 0.5 )
100
AcDbLine
 10
1289.819912274457
 20
458.4765386547916
 30
0.0
 11
1289.819912274457
 21
433.4765386547916
 31
0.0
  0
LINE
  5
13F7
330
74
100
AcDbEntity
  8
AM_0 ( Kontur 0.5 )
100
AcDbLine
 10
1290.819912274457
 20
593.4765386547915
 30
0.0
 11
1289.819912274457
 21
603.4765386547916
 31
0.0
  0
LINE
  5
13F8
330
74
100
AcDbEntity
  8
AM_7 (Mittellinie)
  6
AM_ISO08W050x2
100
AcDbLine
 10
1308.819912274457
 20
568.7036810788646
 30
0.0
 11
1308.819912274457
 21
601.1652766665895
 31
0.0
  0
LINE
  5
13F9
330
74
100
AcDbEntity
  8
AM_7 (Mittellinie)
  6
AM_ISO08W050x2
100
AcDbLine
 10
1296.422090739901
 20
586.4765386547916
 30
0.0
 11
1323.021547169572
 21
586.4765386547916
 31
0.0
  0
LINE
  5
13FA
330
74
100
AcDbEntity
  8
AM_7 (Mittellinie)
  6
AM_ISO08W050x2
100
AcDbLine
 10
1296.422090739901
 20
475.4765386547916
 30
0.0
 11
1323.021547169572
 21
475.4765386547916
 31
0.0
  0
CIRCLE
  5
13FB
330
74
100
AcDbEntity
  8
AM_0 ( Kontur 0.5 )
100
AcDbCircle
 10
1308.819912274457
 20
586.4765386547916
 30
0.0
 40
9.5
  0
CIRCLE
  5
13FC
330
74
100
AcDbEntity
  8
AM_0 ( Kontur 0.5 )
100
AcDbCircle
 10
-1308.819912274457
 20
475.4765386547916
 30
0.0
 40
9.5
210
0.0
220
0.0
230
-1.0
  0
LINE
  5
13FD
330
74
100
AcDbEntity
  8
AM_7 (Mittellinie)
  6
AM_ISO08W050x2
100
AcDbLine
 10
1308.819912274457
 20
493.2493962307185
 30
0.0
 11
1308.819912274457
 21
460.7878006429927
 31
0.0
  0
LINE
  5
13FE
330
74
100
AcDbEntity
  8
AM_0 ( Kontur 0.5 )
100
AcDbLine
 10
1062.067412869155
 20
560.7085894623597
 30
0.0
 11
1219.450970993696
 21
560.7085894623595
 31
0.0
  0
LINE
  5
13FF
330
74
100
AcDbEntity
  8
AM_2 ( Kontur 0.25)
100
AcDbLine
 10
1062.067412869155
 20
501.2444878472226
 30
0.0
 11
1223.067412869155
 21
501.2444878472226
 31
0.0
  0
LINE
  5
1400
330
74
100
AcDbEntity
  8
AM_2 ( Kontur 0.25)
100
AcDbLine
 10
1062.067412869155
 20
570.5916535251307
 30
0.0
 11
1223.067412869155
 21
570.5916535251307
 31
0.0
  0
LINE
  5
1401
330
74
100
AcDbEntity
  8
AM_0 ( Kontur 0.5 )
100
AcDbLine
 10
1153.466990615584
 20
514.7085894623598
 30
0.0
 11
1153.466990615584
 21
560.7085894623597
 31
0.0
  0
LINE
  5
1402
330
74
100
AcDbEntity
  8
AM_0 ( Kontur 0.5 )
100
AcDbLine
 10
1081.152346841119
 20
514.7085894623598
 30
0.0
 11
1081.152346841119
 21
560.7085894623597
 31
0.0
  0
LINE
  5
1403
330
74
100
AcDbEntity
  8
AM_0 ( Kontur 0.5 )
100
AcDbLine
 10
1081.152346841119
 20
558.7085894623596
 30
0.0
 11
1153.466990615584
 21
558.7085894623596
 31
0.0
  0
LINE
  5
1404
330
74
100
AcDbEntity
  8
AM_0 ( Kontur 0.5 )
100
AcDbLine
 10
1081.152346841119
 20
515.7520365567726
 30
0.0
 11
1153.466990615584
 21
515.7520365567726
 31
0.0
  0
LINE
  5
1405
330
74
100
AcDbEntity
  8
AM_0 ( Kontur 0.5 )
100
AcDbLine
 10
1081.152346841119
 20
557.7085894623596
 30
0.0
 11
1153.466990615584
 21
557.7085894623596
 31
0.0
  0
LINE
  5
1406
330
74
100
AcDbEntity
  8
AM_0 ( Kontur 0.5 )
100
AcDbLine
 10
1062.067412869155
 20
514.7085894623598
 30
0.0
 11
1062.067412869155
 21
560.7085894623597
 31
0.0
  0
LINE
  5
1407
330
74
100
AcDbEntity
  8
AM_0 ( Kontur 0.5 )
100
AcDbLine
 10
1062.067412869155
 20
559.7085894623596
 30
0.0
 11
1081.152346841119
 21
559.7085894623596
 31
0.0
  0
LINE
  5
1408
330
74
100
AcDbEntity
  8
AM_0 ( Kontur 0.5 )
100
AcDbLine
 10
1062.067412869155
 20
555.7085894623596
 30
0.0
 11
1081.152346841119
 21
555.7085894623596
 31
0.0
  0
LINE
  5
1409
330
74
100
AcDbEntity
  8
AM_0 ( Kontur 0.5 )
100
AcDbLine
 10
1076.727850066929
 20
526.1594217341126
 30
0.0
 11
1076.727850066929
 21
530.5977892062887
 31
0.0
  0
CIRCLE
  5
140A
330
74
100
AcDbEntity
  8
AM_0 ( Kontur 0.5 )
100
AcDbCircle
 10
1070.850743090012
 20
546.1479104089456
 30
0.4
 40
2.243680768722879
  0
CIRCLE
  5
140B
330
74
100
AcDbEntity
  8
AM_0 ( Kontur 0.5 )
100
AcDbCircle
 10
1070.850743090012
 20
546.1479104089456
 30
0.4
 40
3.043680768722878
  0
LINE
  5
140C
330
74
100
AcDbEntity
  8
AM_0 ( Kontur 0.5 )
100
AcDbLine
 10
1065.942523124983
 20
538.3225867996965
 30
0.0
 11
1065.942523124983
 21
534.3740797627266
 31
0.0
  0
LINE
  5
140D
330
74
100
AcDbEntity
  8
AM_0 ( Kontur 0.5 )
100
AcDbLine
 10
1065.942523124983
 20
530.5977892062887
 30
0.0
 11
1065.942523124983
 21
526.1594217341126
 31
0.0
  0
LINE
  5
140E
330
74
100
AcDbEntity
  8
AM_0 ( Kontur 0.5 )
100
AcDbLine
 10
1065.942523124983
 20
526.1594217341126
 30
0.0
 11
1076.727850066929
 21
526.1594217341126
 31
0.0
  0
LINE
  5
140F
330
74
100
AcDbEntity
  8
AM_0 ( Kontur 0.5 )
100
AcDbLine
 10
1076.727850066929
 20
534.3740797627266
 30
0.0
 11
1076.727850066929
 21
538.3225867996965
 31
0.0
  0
LINE
  5
1410
330
74
100
AcDbEntity
  8
AM_0 ( Kontur 0.5 )
100
AcDbLine
 10
1076.727850066929
 20
538.3225867996965
 30
0.0
 11
1065.942523124983
 21
538.3225867996965
 31
0.0
  0
LINE
  5
1411
330
74
100
AcDbEntity
  8
AM_0 ( Kontur 0.5 )
100
AcDbLine
 10
1065.304967576494
 20
534.3740797627266
 30
0.0
 11
1065.304967576494
 21
530.5977892062887
 31
0.0
  0
LINE
  5
1412
330
74
100
AcDbEntity
  8
AM_0 ( Kontur 0.5 )
100
AcDbLine
 10
1065.304967576494
 20
530.5977892062887
 30
0.0
 11
1077.365405615418
 21
530.5977892062887
 31
0.0
  0
LINE
  5
1413
330
74
100
AcDbEntity
  8
AM_0 ( Kontur 0.5 )
100
AcDbLine
 10
1077.365405615418
 20
530.5977892062887
 30
0.0
 11
1077.365405615418
 21
534.3740797627266
 31
0.0
  0
LINE
  5
1414
330
74
100
AcDbEntity
  8
AM_0 ( Kontur 0.5 )
100
AcDbLine
 10
1077.365405615418
 20
534.3740797627266
 30
0.0
 11
1065.304967576494
 21
534.3740797627266
 31
0.0
  0
CIRCLE
  5
1415
330
74
100
AcDbEntity
  8
AM_0 ( Kontur 0.5 )
100
AcDbCircle
 10
1162.636996927438
 20
553.9830396821726
 30
0.0
 40
1.36484437041646
  0
ARC
  5
1416
330
74
100
AcDbEntity
  8
AM_0 ( Kontur 0.5 )
100
AcDbCircle
 10
1216.987200402866
 20
497.5576862912466
 30
2.0
 40
2.37159524054222
100
AcDbArc
 50
93.82255372927129
 51
266.1774462707287
  0
ARC
  5
1417
330
74
100
AcDbEntity
  8
AM_0 ( Kontur 0.5 )
100
AcDbCircle
 10
1216.987200402866
 20
497.5576862912466
 30
2.0
 40
1.581063493694809
100
AcDbArc
 50
95.73917047726153
 51
264.2608295227384
  0
LINE
  5
1418
330
74
100
AcDbEntity
  8
AM_0 ( Kontur 0.5 )
100
AcDbLine
 10
1216.829094053497
 20
499.1308246047466
 30
2.0
 11
1216.829094053497
 21
499.9240054513056
 31
2.0
  0
LINE
  5
1419
330
74
100
AcDbEntity
  8
AM_0 ( Kontur 0.5 )
100
AcDbLine
 10
1216.829094053497
 20
495.1913671311957
 30
2.0
 11
1216.829094053497
 21
495.9845479777567
 31
2.0
  0
LINE
  5
141A
330
74
100
AcDbEntity
  8
AM_0 ( Kontur 0.5 )
100
AcDbLine
 10
1220.024655032826
 20
495.1913671311957
 30
2.0
 11
1220.024655032826
 21
495.9845479777567
 31
2.0
  0
LINE
  5
141B
330
74
100
AcDbEntity
  8
AM_0 ( Kontur 0.5 )
100
AcDbLine
 10
1220.024655032826
 20
499.1308246047466
 30
2.0
 11
1220.024655032826
 21
499.9240054513056
 31
2.0
  0
ARC
  5
141C
330
74
100
AcDbEntity
  8
AM_0 ( Kontur 0.5 )
100
AcDbCircle
 10
1220.182761382194
 20
497.5576862912466
 30
2.0
 40
1.581063493694809
100
AcDbArc
 50
194.4775121859299
 51
264.2608295227384
  0
ARC
  5
141D
330
74
100
AcDbEntity
  8
AM_0 ( Kontur 0.5 )
100
AcDbCircle
 10
1220.182761382194
 20
497.5576862912466
 30
2.0
 40
2.37159524054222
100
AcDbArc
 50
93.82255372927129
 51
266.1774462707287
  0
LINE
  5
141E
330
74
100
AcDbEntity
  8
AM_0 ( Kontur 0.5 )
100
AcDbLine
 10
1218.651903237095
 20
497.9529521646707
 30
2.0
 11
1219.708442334087
 21
497.9529521646707
 31
2.0
  0
LINE
  5
141F
330
74
100
AcDbEntity
  8
AM_0 ( Kontur 0.5 )
100
AcDbLine
 10
1218.651903237095
 20
497.1624204178216
 30
2.0
 11
1219.708442334087
 21
497.1624204178216
 31
2.0
  0
ARC
  5
1420
330
74
100
AcDbEntity
  8
AM_0 ( Kontur 0.5 )
100
AcDbCircle
 10
1220.182761382194
 20
497.5576862912466
 30
2.0
 40
1.581063493694809
100
AcDbArc
 50
95.73917047726153
 51
165.5224878140701
  0
LINE
  5
1421
330
74
100
AcDbEntity
  8
AM_0 ( Kontur 0.5 )
100
AcDbLine
 10
1219.708442334087
 20
497.1624204178216
 30
2.0
 11
1219.708442334087
 21
497.9529521646707
 31
2.0
  0
LINE
  5
1431
330
74
100
AcDbEntity
  8
AM_0 ( Kontur 0.5 )
100
AcDbLine
 10
1175.594638032068
 20
530.7363220961276
 30
1.199999999999999
 11
1175.802191358424
 21
530.7363220961276
 31
1.199999999999999
  0
LINE
  5
1432
330
74
100
AcDbEntity
  8
AM_0 ( Kontur 0.5 )
100
AcDbLine
 10
1175.802191358424
 20
530.7363220961276
 30
1.199999999999999
 11
1175.802191358424
 21
530.9188558170963
 31
1.199999999999999
  0
ARC
  5
1433
330
74
100
AcDbEntity
  8
AM_0 ( Kontur 0.5 )
100
AcDbCircle
 10
1176.102302249236
 20
531.3589820751957
 30
1.199999999999999
 40
0.532707865393869
100
AcDbArc
 50
304.28908135157
 51
235.71091864843
  0
LINE
  5
1434
330
74
100
AcDbEntity
  8
AM_0 ( Kontur 0.5 )
100
AcDbLine
 10
1176.612771241085
 20
530.7363220961276
 30
1.199999999999999
 11
1176.402413140048
 21
530.7363220961276
 31
1.199999999999999
  0
LINE
  5
1435
330
74
100
AcDbEntity
  8
AM_0 ( Kontur 0.5 )
100
AcDbLine
 10
1176.402413140048
 20
530.7363220961276
 30
1.199999999999999
 11
1176.402413140048
 21
530.9188558170963
 31
1.199999999999999
  0
LINE
  5
1436
330
74
100
AcDbEntity
  8
AM_0 ( Kontur 0.5 )
100
AcDbLine
 10
1181.267127773957
 20
530.6874158525608
 30
1.199999999999999
 11
1181.474681100313
 21
530.6874158525608
 31
1.199999999999999
  0
LINE
  5
1437
330
74
100
AcDbEntity
  8
AM_0 ( Kontur 0.5 )
100
AcDbLine
 10
1181.474681100313
 20
530.6874158525608
 30
1.199999999999999
 11
1181.474681100313
 21
530.8699495735298
 31
1.199999999999999
  0
ARC
  5
1438
330
74
100
AcDbEntity
  8
AM_0 ( Kontur 0.5 )
100
AcDbCircle
 10
1181.774791991125
 20
531.3100758316287
 30
1.199999999999999
 40
0.532707865393869
100
AcDbArc
 50
304.28908135157
 51
235.71091864843
  0
LINE
  5
1439
330
74
100
AcDbEntity
  8
AM_0 ( Kontur 0.5 )
100
AcDbLine
 10
1182.285260982974
 20
530.6874158525608
 30
1.199999999999999
 11
1182.074902881938
 21
530.6874158525608
 31
1.199999999999999
  0
LINE
  5
143A
330
74
100
AcDbEntity
  8
AM_0 ( Kontur 0.5 )
100
AcDbLine
 10
1182.074902881938
 20
530.6874158525608
 30
1.199999999999999
 11
1182.074902881938
 21
530.8699495735298
 31
1.199999999999999
  0
LINE
  5
1443
330
74
100
AcDbEntity
  8
AM_0 ( Kontur 0.5 )
100
AcDbLine
 10
1059.567412869155
 20
514.7085894623598
 30
0.0
 11
1219.450970993696
 21
514.7085894623597
 31
0.0
  0
TEXT
  5
1444
330
74
100
AcDbEntity
  8
AM_0 ( Kontur 0.5 )
100
AcDbText
 10
1161.674499373953
 20
556.2579059097388
 30
0.0
 40
2.5
  1
U
 41
1.200000017881389
100
AcDbText
  0
TEXT
  5
1445
330
74
100
AcDbEntity
  8
AM_0 ( Kontur 0.5 )
100
AcDbText
 10
1171.979219972677
 20
533.9114637652559
 30
0.0
 40
1.08
  1
SENSITIVITY
 41
1.200000017881389
100
AcDbText
  0
TEXT
  5
1446
330
74
100
AcDbEntity
  8
AM_0 ( Kontur 0.5 )
100
AcDbText
 10
1170.276930598918
 20
520.1380036752007
 30
0.532354860095024
 40
1.08
  1
PUMP
 41
1.200000017881389
100
AcDbText
  0
TEXT
  5
1447
330
74
100
AcDbEntity
  8
AM_0 ( Kontur 0.5 )
100
AcDbText
 10
1160.214837272306
 20
516.7572041880597
 30
0.532354860095024
 40
1.26
  1
down
 41
1.200000017881389
100
AcDbText
  0
TEXT
  5
1448
330
74
100
AcDbEntity
  8
AM_0 ( Kontur 0.5 )
100
AcDbText
 10
1159.715298792419
 20
524.6259124722563
 30
0.532354860095024
 40
1.26
  1
up
 41
1.200000017881389
100
AcDbText
  0
TEXT
  5
1449
330
74
100
AcDbEntity
  8
AM_0 ( Kontur 0.5 )
100
AcDbText
 10
1156.514375833622
 20
522.9056793593703
 30
0.228
 40
1.700999999999999
  1
E3LC10
 50
90.0
 41
1.200000017881389
100
AcDbText
  0
TEXT
  5
144A
330
74
100
AcDbEntity
  8
AM_0 ( Kontur 0.5 )
100
AcDbText
 10
1070.087368533843
 20
490.7103374804417
 30
2.0
 40
1.6
  1
     OASE-GmbH
 41
1.200000017881389
100
AcDbText
  0
TEXT
  5
144B
330
74
100
AcDbEntity
  8
AM_0 ( Kontur 0.5 )
100
AcDbText
 10
1070.087368533843
 20
488.4475954777846
 30
2.0
 40
1.6
  1
Tecklenburger Straße 161
 41
1.200000017881389
100
AcDbText
  0
TEXT
  5
144C
330
74
100
AcDbEntity
  8
AM_0 ( Kontur 0.5 )
100
AcDbText
 10
1070.087368533843
 20
486.1848534751268
 30
2.0
 40
1.6
  1
  D-48477 Hörstel
 41
1.200000017881389
100
AcDbText
  0
TEXT
  5
144D
330
74
100
AcDbEntity
  8
AM_0 ( Kontur 0.5 )
100
AcDbText
 10
1070.087368533843
 20
483.9221114724697
 30
2.0
 40
1.6
  1
  Tel: 05454/80-0
 41
1.200000017881389
100
AcDbText
  0
TEXT
  5
144E
330
74
100
AcDbEntity
  8
AM_0 ( Kontur 0.5 )
100
AcDbText
 10
1070.087368533843
 20
481.6593694698127
 30
2.0
 40
1.6
  1
  Fax: 05454/80-235
 41
1.200000017881389
100
AcDbText
  0
TEXT
  5
144F
330
74
100
AcDbEntity
  8
AM_0 ( Kontur 0.5 )
100
AcDbText
 10
1109.748367952297
 20
494.9453857371846
 30
2.0
 40
4.839999999999998
  1
Water Level Control
 41
1.200000017881389
100
AcDbText
  0
TEXT
  5
1450
330
74
100
AcDbEntity
  8
AM_0 ( Kontur 0.5 )
100
AcDbText
 10
1111.029803597711
 20
488.4081438314507
 30
2.0
 40
3.3275
  1
Ident-Nr.: 55846
 41
1.200000017881389
100
AcDbText
  0
TEXT
  5
1451
330
74
100
AcDbEntity
  8
AM_0 ( Kontur 0.5 )
100
AcDbText
 10
1187.767272390673
 20
496.2879778575576
 30
2.0
 40
3.66025
  1
EWR-2
 41
1.200000017881389
100
AcDbText
  0
TEXT
  5
1455
330
74
100
AcDbEntity
  8
AM_0 ( Kontur 0.5 )
100
AcDbText
 10
1173.681016100496
 20
530.7129333149492
 30
1.199999999999999
 40
0.9
  1
5k
 41
1.200000017881389
100
AcDbText
  0
TEXT
  5
1456
330
74
100
AcDbEntity
  8
AM_0 ( Kontur 0.5 )
100
AcDbText
 10
1177.761501906995
 20
530.7101386724601
 30
1.199999999999999
 40
0.9
  1
100k
 41
1.200000017881389
100
AcDbText
  0
INSERT
  5
145F
330
74
100
AcDbEntity
  8
AM_0 ( Kontur 0.5 )
100
AcDbBlockReference
  2
*X11
 10
1608.181224478582
 20
887.4130589353006
 30
0.0
  0
INSERT
  5
1460
330
74
100
AcDbEntity
  8
AM_0 ( Kontur 0.5 )
100
AcDbBlockReference
  2
*X12
 10
1608.181224478582
 20
887.4130589353006
 30
0.0
  0
IMAGE
  5
1461
330
74
100
AcDbEntity
  8
AM_7 (Mittellinie)
  6
AM_ISO08W050x2
160
               140
310
8C000000010000008400000006000000050000004897FFE851C09040A8D3454BB6CD7E4000000000000000004897FFE851C09040F2DC85789C457F40000000000000000040B8EE9B6B069140F2DC85789C457F40000000000000000040B8EE9B6B069140A8D3454BB6CD7E4000000000000000004897FFE851C09040A8D345
310
4BB6CD7E400000000000000000
100
AcDbRasterImage
 90
        0
 10
1072.079990380867
 20
492.8570053794487
 30
0.0
 11
0.0298553605483984
 21
0.0
 31
0.0
 12
0.0
 22
0.0298553605483984
 32
0.0
 13
587.0
 23
251.0
340
E82
 70
     7
280
     0
281
    50
282
    50
283
     0
290
     0
360
1462
 71
     1
 91
        2
 14
-0.5
 24
-0.5
 14
586.5
 24
250.5
  0
DIMENSION
  5
1463
102
{ACAD_XDICTIONARY
360
1464
102
}
102
{ACAD_REACTORS
330
1465
102
}
330
74
100
AcDbEntity
  8
AM_5 ( Bemassung)
100
AcDbDimension
280
     0
  2
*D17
 10
1045.067412869155
 20
661.2152422158209
 30
0.0
 11
1142.567412869155
 21
668.8421180684812
 31
0.0
 70
    32
 71
     5
 42
194.9999999999997
 73
     0
 74
     0
 75
     0
  3
AM_DIN$0
100
AcDbAlignedDimension
 13
1240.067412869155
 23
621.4765386547907
 33
0.0
 14
1045.067412869155
 24
621.4765386547907
 34
0.0
100
AcDbRotatedDimension
1001
ACAD_DSTYLE_DIMINSPECT
1070
   396
1000
100%
1070
   395
1000

1070
   394
1070
    33
1070
   393
1070
     0
1001
ACAD
1000
DSTYLE
1002
{
1070
    41
1040
12.0
1070
   140
1040
12.0
1002
}
  0
DIMENSION
  5
1466
102
{ACAD_XDICTIONARY
360
1467
102
}
102
{ACAD_REACTORS
330
1468
102
}
330
74
100
AcDbEntity
  8
AM_5 ( Bemassung)
100
AcDbDimension
280
     0
  2
*D18
 10
1013.839356011043
 20
433.4765386547916
 30
0.0
 11
1006.212480158382
 21
530.9765386547913
 31
0.0
 70
    32
 71
     5
 42
194.9999999999991
 73
     0
 74
     0
 75
     0
  3
AM_DIN$0
100
AcDbAlignedDimension
 13
1052.067412869155
 23
628.4765386547907
 33
0.0
 14
1052.067412869155
 24
433.4765386547916
 34
0.0
 50
90.0
100
AcDbRotatedDimension
1001
ACAD_DSTYLE_DIMINSPECT
1070
   396
1000
100%
1070
   395
1000

1070
   394
1070
    33
1070
   393
1070
     0
1001
ACAD
1000
DSTYLE
1002
{
1070
    41
1040
12.0
1070
   140
1040
12.0
1002
}
  0
LINE
  5
1469
102
{ACAD_REACTORS
330
146C
102
}
330
74
100
AcDbEntity
  8
AM_7 (Mittellinie)
  6
AM_ISO08W050x2
100
AcDbLine
 10
1289.819912274457
 20
530.9765386547915
 30
0.0
 11
1424.288708933703
 21
530.9765386547915
 31
0.0
1001
GENIUS_GENODEF_13
1002
{
1000
HIER
1070
     0
1002
}
1002
{
1000
MANEDIT
1070
     0
1002
}
1002
{
1000
NOSEL
1070
     0
1002
}
1002
{
1000
BEHIND
1070
     0
1002
}
1002
{
1000
OTHER
1070
     0
1002
}
1002
{
1000
REACTOR
1002
}
1001
GENIUS_GENOBJ-N-CEN_13
1002
{
1000
OWNER
1000
GEN
1002
}
1001
GENIUS_GENCEN_19
1002
{
1040
0.0
1002
}
  0
DIMENSION
  5
146A
102
{ACAD_XDICTIONARY
360
146B
102
}
102
{ACAD_REACTORS
330
146C
102
}
330
74
100
AcDbEntity
  8
AM_5 ( Bemassung)
100
AcDbDimension
280
     0
  2
*D19
 10
1289.819912274457
 20
660.1623714977015
 30
0.0
 11
1350.319912274457
 21
667.6869281143455
 31
0.0
 70
    32
 71
     5
 42
121.0
 73
     0
 74
     0
 75
     0
  3
AM_DIN$0
100
AcDbAlignedDimension
 13
1410.819912274457
 23
530.9765386547915
 33
0.0
 14
1289.819912274457
 24
628.4765386547916
 34
0.0
100
AcDbRotatedDimension
1001
ACAD_DSTYLE_DIMINSPECT
1070
   396
1000
100%
1070
   395
1000

1070
   394
1070
    33
1070
   393
1070
     0
1001
ACAD
1000
DSTYLE
1002
{
1070
    41
1040
12.0
1070
   140
1040
12.0
1002
}
  0
CIRCLE
  5
146D
330
74
100
AcDbEntity
  8
AM_0
100
AcDbCircle
 10
1164.59302616262
 20
521.2053341778795
 30
0.0
 40
2.591226949480187
  0
LWPOLYLINE
  5
146E
330
74
100
AcDbEntity
  8
AM_0
100
AcDbPolyline
 90
        4
 70
     1
 43
0.0
 10
1164.306108166869
 20
523.4306331041076
 10
1164.918130450657
 20
523.4306331041076
 10
1164.918130450657
 20
520.3145842996713
 10
1164.306108166869
 20
520.3145842996713
1001
GENIUS_GENREC_14
1002
{
1000
PYDIR
1011
1164.306108166869
1021
519.6663077580711
1031
0.0
1002
}
1002
{
1000
PXDIR
1011
1164.918130450657
1021
523.1755030662902
1031
0.0
1002
}
1002
{
1000
PORI
1011
1164.306108166869
1021
523.1755030662902
1031
0.0
1002
}
1002
{
1000
PINS
1011
1164.306108166869
1021
523.1755030662902
1031
0.0
1002
}
1002
{
1000
PINS2
1011
1164.918130450657
1021
519.6663077580711
1031
0.0
1002
}
1002
{
1000
C
1070
     1
1002
}
1001
GENIUS_GENOBJ-N-REC_13
1002
{
1000
OWNER
1000
GEN
1002
}
1001
GENIUS_GENODEF_13
1002
{
1000
HIER
1070
     0
1002
}
1002
{
1000
MANEDIT
1070
     0
1002
}
1002
{
1000
NOSEL
1070
     0
1002
}
1002
{
1000
BEHIND
1070
     0
1002
}
1002
{
1000
OTHER
1070
     0
1002
}
1002
{
1000
REACTOR
1002
}
  0
LWPOLYLINE
  5
146F
330
74
100
AcDbEntity
  8
AM_0
100
AcDbPolyline
 90
        4
 70
     1
 43
0.0
 10
1163.476008653783
 20
521.5438195312716
 10
1165.763802887044
 20
521.5438195312716
 10
1165.763802887044
 20
520.9322576501048
 10
1163.476008653783
 20
520.9322576501048
1001
GENIUS_GENREC_14
1002
{
1000
PYDIR
1011
1163.476008653783
1021
520.9322576501048
1031
0.0
1002
}
1002
{
1000
PXDIR
1011
1165.763802887044
1021
521.5438195312716
1031
0.0
1002
}
1002
{
1000
PORI
1011
1163.476008653783
1021
521.5438195312716
1031
0.0
1002
}
1002
{
1000
PINS
1011
1163.476008653783
1021
521.5438195312716
1031
0.0
1002
}
1002
{
1000
PINS2
1011
1165.763802887044
1021
520.9322576501048
1031
0.0
1002
}
1002
{
1000
C
1070
     1
1002
}
1001
GENIUS_GENODEF_13
1002
{
1000
HIER
1070
     0
1002
}
1002
{
1000
MANEDIT
1070
     0
1002
}
1002
{
1000
NOSEL
1070
     0
1002
}
1002
{
1000
BEHIND
1070
     0
1002
}
1002
{
1000
OTHER
1070
     0
1002
}
1002
{
1000
REACTOR
1002
}
1001
GENIUS_GENOBJ-N-REC_13
1002
{
1000
OWNER
1000
GEN
1002
}
  0
TEXT
  5
1470
330
74
100
AcDbEntity
  8
AM_0 ( Kontur 0.5 )
100
AcDbText
 10
1160.447110558391
 20
529.5226834381984
 30
0.532354860095024
 40
1.26
  1
max
 41
1.200000017881389
100
AcDbText
  0
TEXT
  5
1471
330
74
100
AcDbEntity
  8
AM_0 ( Kontur 0.5 )
100
AcDbText
 10
1159.947572078505
 20
537.391391722395
 30
0.532354860095024
 40
1.26
  1
min
 41
1.200000017881389
100
AcDbText
  0
CIRCLE
  5
1472
330
74
100
AcDbEntity
  8
AM_0
100
AcDbCircle
 10
1164.825299448705
 20
533.9708134280182
 30
0.0
 40
2.591226949480187
  0
LWPOLYLINE
  5
1473
330
74
100
AcDbEntity
  8
AM_0
100
AcDbPolyline
 90
        4
 70
     1
 43
0.0
 10
1164.538381452955
 20
536.1961123542463
 10
1165.150403736743
 20
536.1961123542463
 10
1165.150403736743
 20
533.08006354981
 10
1164.538381452955
 20
533.08006354981
1001
GENIUS_GENREC_14
1002
{
1000
PYDIR
1011
1164.538381452955
1021
532.4317870082098
1031
0.0
1002
}
1002
{
1000
PXDIR
1011
1165.150403736743
1021
535.9409823164289
1031
0.0
1002
}
1002
{
1000
PORI
1011
1164.538381452955
1021
535.9409823164289
1031
0.0
1002
}
1002
{
1000
PINS
1011
1164.538381452955
1021
535.9409823164289
1031
0.0
1002
}
1002
{
1000
PINS2
1011
1165.150403736743
1021
532.4317870082098
1031
0.0
1002
}
1002
{
1000
C
1070
     1
1002
}
1001
GENIUS_GENOBJ-N-REC_13
1002
{
1000
OWNER
1000
GEN
1002
}
1001
GENIUS_GENODEF_13
1002
{
1000
HIER
1070
     0
1002
}
1002
{
1000
MANEDIT
1070
     0
1002
}
1002
{
1000
NOSEL
1070
     0
1002
}
1002
{
1000
BEHIND
1070
     0
1002
}
1002
{
1000
OTHER
1070
     0
1002
}
1002
{
1000
REACTOR
1002
}
  0
LWPOLYLINE
  5
1474
330
74
100
AcDbEntity
  8
AM_0
100
AcDbPolyline
 90
        4
 70
     1
 43
0.0
 10
1163.708281939868
 20
534.3092987814103
 10
1165.996076173129
 20
534.3092987814103
 10
1165.996076173129
 20
533.6977369002434
 10
1163.708281939868
 20
533.6977369002434
1001
GENIUS_GENREC_14
1002
{
1000
PYDIR
1011
1163.708281939868
1021
533.6977369002434
1031
0.0
1002
}
1002
{
1000
PXDIR
1011
1165.996076173129
1021
534.3092987814103
1031
0.0
1002
}
1002
{
1000
PORI
1011
1163.708281939868
1021
534.3092987814103
1031
0.0
1002
}
1002
{
1000
PINS
1011
1163.708281939868
1021
534.3092987814103
1031
0.0
1002
}
1002
{
1000
PINS2
1011
1165.996076173129
1021
533.6977369002434
1031
0.0
1002
}
1002
{
1000
C
1070
     1
1002
}
1001
GENIUS_GENODEF_13
1002
{
1000
HIER
1070
     0
1002
}
1002
{
1000
MANEDIT
1070
     0
1002
}
1002
{
1000
NOSEL
1070
     0
1002
}
1002
{
1000
BEHIND
1070
     0
1002
}
1002
{
1000
OTHER
1070
     0
1002
}
1002
{
1000
REACTOR
1002
}
1001
GENIUS_GENOBJ-N-REC_13
1002
{
1000
OWNER
1000
GEN
1002
}
  0
ARC
  5
1475
330
74
100
AcDbEntity
  8
AM_0
100
AcDbCircle
 10
1165.170572210882
 20
534.1312600822567
 30
0.0
 40
3.27997056207226
100
AcDbArc
 50
280.3305468294768
 51
52.20829492778754
  0
ARC
  5
1476
330
74
100
AcDbEntity
  8
AM_0
100
AcDbCircle
 10
1165.376821947565
 20
533.4852331812578
 30
0.0
 40
3.706476673967644
100
AcDbArc
 50
280.0989224860385
 51
60.88051308630419
  0
LINE
  5
1477
330
74
100
AcDbEntity
  8
AM_0
100
AcDbLine
 10
1165.75875864188
 20
530.9044592500932
 30
0.0
 11
1166.026746002683
 21
529.8361828860103
 31
0.0
  0
ARC
  5
1478
330
74
100
AcDbEntity
  8
AM_0 ( Kontur 0.5 )
100
AcDbCircle
 10
1085.01038887607
 20
533.6333390684989
 30
2.0
 40
2.37159524054222
100
AcDbArc
 50
93.82255372927129
 51
266.1774462707287
  0
ARC
  5
1479
330
74
100
AcDbEntity
  8
AM_0 ( Kontur 0.5 )
100
AcDbCircle
 10
1085.01038887607
 20
533.6333390684989
 30
2.0
 40
1.581063493694809
100
AcDbArc
 50
95.73917047727466
 51
264.2608295227253
  0
LINE
  5
147A
330
74
100
AcDbEntity
  8
AM_0 ( Kontur 0.5 )
100
AcDbLine
 10
1084.852282526701
 20
535.2064773819989
 30
2.0
 11
1084.852282526701
 21
535.999658228558
 31
2.0
  0
LINE
  5
147B
330
74
100
AcDbEntity
  8
AM_0 ( Kontur 0.5 )
100
AcDbLine
 10
1084.852282526701
 20
531.2670199084481
 30
2.0
 11
1084.852282526701
 21
532.0602007550091
 31
2.0
  0
LINE
  5
147C
330
74
100
AcDbEntity
  8
AM_0 ( Kontur 0.5 )
100
AcDbLine
 10
1088.04784350603
 20
531.2670199084481
 30
2.0
 11
1088.04784350603
 21
532.0602007550091
 31
2.0
  0
LINE
  5
147D
330
74
100
AcDbEntity
  8
AM_0 ( Kontur 0.5 )
100
AcDbLine
 10
1088.04784350603
 20
535.2064773819989
 30
2.0
 11
1088.04784350603
 21
535.999658228558
 31
2.0
  0
ARC
  5
147E
330
74
100
AcDbEntity
  8
AM_0 ( Kontur 0.5 )
100
AcDbCircle
 10
1088.205949855398
 20
533.6333390684989
 30
2.0
 40
1.581063493694809
100
AcDbArc
 50
194.4775121859299
 51
264.2608295227253
  0
ARC
  5
147F
330
74
100
AcDbEntity
  8
AM_0 ( Kontur 0.5 )
100
AcDbCircle
 10
1088.205949855398
 20
533.6333390684989
 30
2.0
 40
2.37159524054222
100
AcDbArc
 50
93.82255372927129
 51
266.1774462707287
  0
LINE
  5
1480
330
74
100
AcDbEntity
  8
AM_0 ( Kontur 0.5 )
100
AcDbLine
 10
1086.675091710299
 20
534.028604941923
 30
2.0
 11
1087.731630807291
 21
534.028604941923
 31
2.0
  0
LINE
  5
1481
330
74
100
AcDbEntity
  8
AM_0 ( Kontur 0.5 )
100
AcDbLine
 10
1086.675091710299
 20
533.2380731950739
 30
2.0
 11
1087.731630807291
 21
533.2380731950739
 31
2.0
  0
ARC
  5
1482
330
74
100
AcDbEntity
  8
AM_0 ( Kontur 0.5 )
100
AcDbCircle
 10
1088.205949855398
 20
533.6333390684989
 30
2.0
 40
1.581063493694809
100
AcDbArc
 50
95.73917047727466
 51
165.5224878140701
  0
LINE
  5
1483
330
74
100
AcDbEntity
  8
AM_0 ( Kontur 0.5 )
100
AcDbLine
 10
1087.731630807291
 20
533.2380731950739
 30
2.0
 11
1087.731630807291
 21
534.028604941923
 31
2.0
  0
INSERT
  5
1484
330
74
100
AcDbEntity
  8
AM_0 ( Kontur 0.5 )
100
AcDbBlockReference
  2
*X11
 10
1476.204412951786
 20
923.4887117125531
 30
0.0
  0
INSERT
  5
1485
330
74
100
AcDbEntity
  8
AM_0 ( Kontur 0.5 )
100
AcDbBlockReference
  2
*X12
 10
1476.204412951786
 20
923.4887117125531
 30
0.0
  0
LINE
  5
1486
330
74
100
AcDbEntity
  8
AM_0
100
AcDbLine
 10
1119.790800704328
 20
528.9433735167166
 30
0.0
 11
1119.790800704328
 21
518.4258158560161
 31
0.0
  0
LINE
  5
1487
330
74
100
AcDbEntity
  8
AM_0
100
AcDbLine
 10
1119.790800704328
 20
518.4258158560161
 30
0.0
 11
1146.567412869155
 21
518.4258158560161
 31
0.0
  0
LINE
  5
1488
330
74
100
AcDbEntity
  8
AM_0
100
AcDbLine
 10
1146.567412869155
 20
518.4258158560161
 30
0.0
 11
1146.567412869155
 21
524.0974568205652
 31
0.0
  0
LINE
  5
1489
330
74
100
AcDbEntity
  8
AM_0
100
AcDbLine
 10
1146.567412869155
 20
524.0974568205652
 30
0.0
 11
1119.790800704328
 21
524.0974568205652
 31
0.0
  0
LINE
  5
148A
330
74
100
AcDbEntity
  8
AM_0
100
AcDbLine
 10
1128.466792340111
 20
524.0974568205652
 30
0.0
 11
1128.466792340111
 21
518.4258158560161
 31
0.0
  0
LINE
  5
148B
330
74
100
AcDbEntity
  8
AM_0
100
AcDbLine
 10
1137.548258368011
 20
524.0974568205652
 30
0.0
 11
1137.548258368011
 21
518.4258158560161
 31
0.0
  0
LWPOLYLINE
  5
148C
330
74
100
AcDbEntity
  8
AM_0
100
AcDbPolyline
 90
        4
 70
     1
 43
0.0
 10
1081.152346841119
 20
560.7085894623597
 10
1151.547886464266
 20
560.7085894623597
 10
1151.547886464266
 20
528.9433735167166
 10
1081.152346841119
 20
528.9433735167166
1001
GENIUS_GENREC_14
1002
{
1000
PYDIR
1011
1081.152346841119
1021
528.9433735167166
1031
0.0
1002
}
1002
{
1000
PXDIR
1011
1151.547886464266
1021
560.7085894623597
1031
0.0
1002
}
1002
{
1000
PORI
1011
1081.152346841119
1021
560.7085894623597
1031
0.0
1002
}
1002
{
1000
PINS
1011
1081.152346841119
1021
560.7085894623597
1031
0.0
1002
}
1002
{
1000
PINS2
1011
1151.547886464266
1021
528.9433735167166
1031
0.0
1002
}
1002
{
1000
C
1070
     1
1002
}
1001
GENIUS_GENODEF_13
1002
{
1000
HIER
1070
     0
1002
}
1002
{
1000
MANEDIT
1070
     0
1002
}
1002
{
1000
NOSEL
1070
     0
1002
}
1002
{
1000
BEHIND
1070
     0
1002
}
1002
{
1000
OTHER
1070
     0
1002
}
1002
{
1000
REACTOR
1002
}
1001
GENIUS_GENOBJ-N-REC_13
1002
{
1000
OWNER
1000
GEN
1002
}
  0
CIRCLE
  5
148D
330
74
100
AcDbEntity
  8
AM_0
100
AcDbCircle
 10
1124.194170809688
 20
521.1944877599299
 30
0.0
 40
2.401813112287982
  0
LINE
  5
148E
330
74
100
AcDbEntity
  8
AM_0
100
AcDbLine
 10
1124.194170809688
 20
521.1944877599299
 30
0.0
 11
1124.194170809688
 21
522.9522410669045
 31
0.0
  0
LINE
  5
148F
330
74
100
AcDbEntity
  8
AM_0
100
AcDbLine
 10
1124.194170809688
 20
521.1944877599299
 30
0.0
 11
1122.365958239609
 21
521.1944877599299
 31
0.0
  0
LINE
  5
1490
330
74
100
AcDbEntity
  8
AM_0
100
AcDbLine
 10
1124.194170809688
 20
521.1944877599299
 30
0.0
 11
1126.083229107208
 21
521.1944877599299
 31
0.0
  0
LINE
  5
1491
330
74
100
AcDbEntity
  8
AM_0
100
AcDbLine
 10
1124.194170809688
 20
520.3354037326729
 30
0.0
 11
1123.082000485196
 21
520.3354037326729
 31
0.0
  0
LINE
  5
1492
330
74
100
AcDbEntity
  8
AM_0
100
AcDbLine
 10
1124.194170809688
 20
519.5102754471403
 30
0.0
 11
1123.58531429519
 21
519.5102754471403
 31
0.0
  0
LINE
  5
1493
330
74
100
AcDbEntity
  8
AM_0
100
AcDbLine
 10
1124.194170809688
 20
520.3354037326729
 30
0.0
 11
1125.306341134181
 21
520.3354037326729
 31
0.0
  0
LINE
  5
1494
330
74
100
AcDbEntity
  8
AM_0
100
AcDbLine
 10
1124.194170809688
 20
519.5102754471403
 30
0.0
 11
1124.803027324187
 21
519.5102754471403
 31
0.0
  0
LINE
  5
1495
330
74
100
AcDbEntity
  8
AM_0
100
AcDbLine
 10
1131.234677917296
 20
518.9093201801664
 30
0.0
 11
1131.234677917296
 21
523.4581258994912
 31
0.0
  0
LINE
  5
1496
330
74
100
AcDbEntity
  8
AM_0
100
AcDbLine
 10
1131.234677917296
 20
523.4581258994912
 30
0.0
 11
1134.398786264951
 21
519.11330266283
 31
0.0
  0
LINE
  5
1497
330
74
100
AcDbEntity
  8
AM_0
100
AcDbLine
 10
1134.398786264951
 20
519.11330266283
 30
0.0
 11
1134.398786264951
 21
523.4581258994912
 31
0.0
  0
LINE
  5
1498
330
74
100
AcDbEntity
  8
AM_0
100
AcDbLine
 10
1140.504124612784
 20
523.4581258994912
 30
0.0
 11
1140.504124612784
 21
519.11330266283
 31
0.0
  0
LINE
  5
1499
330
74
100
AcDbEntity
  8
AM_0
100
AcDbLine
 10
1140.504124612784
 20
519.11330266283
 30
0.0
 11
1144.13774700083
 21
519.11330266283
 31
0.0
  0
LINE
  5
149A
330
74
100
AcDbEntity
  8
AM_0
100
AcDbLine
 10
1081.152346841119
 20
524.0974568205652
 30
0.0
 11
1111.130218201033
 21
524.0974568205652
 31
0.0
  0
LINE
  5
149B
330
74
100
AcDbEntity
  8
AM_0
100
AcDbLine
 10
1111.130218201033
 20
524.0974568205652
 30
0.0
 11
1111.130218201033
 21
518.4258158560161
 31
0.0
  0
LINE
  5
149C
330
74
100
AcDbEntity
  8
AM_0
100
AcDbLine
 10
1111.130218201033
 20
518.4258158560161
 30
0.0
 11
1101.297313197526
 21
518.4258158560161
 31
0.0
  0
LINE
  5
149D
330
74
100
AcDbEntity
  8
AM_0
100
AcDbLine
 10
1101.297313197526
 20
518.4258158560161
 30
0.0
 11
1101.297313197526
 21
524.0974568205652
 31
0.0
  0
LINE
  5
149E
330
74
100
AcDbEntity
  8
AM_0
100
AcDbLine
 10
1101.297313197526
 20
518.4258158560161
 30
0.0
 11
1091.379638771097
 21
518.4258158560161
 31
0.0
  0
LINE
  5
149F
330
74
100
AcDbEntity
  8
AM_0
100
AcDbLine
 10
1091.379638771097
 20
518.4258158560161
 30
0.0
 11
1091.379638771097
 21
524.0974568205652
 31
0.0
  0
LINE
  5
14A0
330
74
100
AcDbEntity
  8
AM_0
100
AcDbLine
 10
1093.739872050211
 20
521.2243233439745
 30
0.0
 11
1098.694173025702
 21
521.2243233439745
 31
0.0
  0
LINE
  5
14A1
330
74
100
AcDbEntity
  8
AM_0
100
AcDbLine
 10
1106.083992191519
 20
523.3667971090113
 30
0.0
 11
1106.083992191519
 21
519.0194465288376
 31
0.0
  0
LINE
  5
14A2
330
74
100
AcDbEntity
  8
AM_0
100
AcDbLine
 10
1104.002354287519
 20
521.0995184192833
 30
0.0
 11
1108.373795421459
 21
521.0995184192833
 31
0.0
  0
LINE
  5
14C9
330
74
100
AcDbEntity
  8
AM_0 ( Kontur 0.5 )
100
AcDbLine
 10
1219.450970993696
 20
514.7085894623598
 30
0.0
 11
1219.450970993696
 21
560.7085894623597
 31
0.0
  0
LINE
  5
14CA
330
74
100
AcDbEntity
  8
AM_0 ( Kontur 0.5 )
100
AcDbLine
 10
1186.45898080464
 20
514.7085894623598
 30
0.0
 11
1186.45898080464
 21
560.7085894623597
 31
0.0
  0
CIRCLE
  5
14CB
330
74
100
AcDbEntity
  8
AM_0 ( Kontur 0.5 )
100
AcDbCircle
 10
1195.628987116494
 20
553.9830396821726
 30
0.0
 40
1.36484437041646
  0
LINE
  5
14CC
330
74
100
AcDbEntity
  8
AM_0 ( Kontur 0.5 )
100
AcDbLine
 10
1208.586628221123
 20
530.7363220961276
 30
1.199999999999999
 11
1208.79418154748
 21
530.7363220961276
 31
1.199999999999999
  0
LINE
  5
14CD
330
74
100
AcDbEntity
  8
AM_0 ( Kontur 0.5 )
100
AcDbLine
 10
1208.79418154748
 20
530.7363220961276
 30
1.199999999999999
 11
1208.79418154748
 21
530.9188558170963
 31
1.199999999999999
  0
ARC
  5
14CE
330
74
100
AcDbEntity
  8
AM_0 ( Kontur 0.5 )
100
AcDbCircle
 10
1209.094292438292
 20
531.3589820751957
 30
1.199999999999999
 40
0.532707865393869
100
AcDbArc
 50
304.2890813515699
 51
235.7109186484301
  0
LINE
  5
14CF
330
74
100
AcDbEntity
  8
AM_0 ( Kontur 0.5 )
100
AcDbLine
 10
1209.604761430141
 20
530.7363220961276
 30
1.199999999999999
 11
1209.394403329104
 21
530.7363220961276
 31
1.199999999999999
  0
LINE
  5
14D0
330
74
100
AcDbEntity
  8
AM_0 ( Kontur 0.5 )
100
AcDbLine
 10
1209.394403329104
 20
530.7363220961276
 30
1.199999999999999
 11
1209.394403329104
 21
530.9188558170963
 31
1.199999999999999
  0
LINE
  5
14D1
330
74
100
AcDbEntity
  8
AM_0 ( Kontur 0.5 )
100
AcDbLine
 10
1214.259117963013
 20
530.6874158525608
 30
1.199999999999999
 11
1214.466671289369
 21
530.6874158525608
 31
1.199999999999999
  0
LINE
  5
14D2
330
74
100
AcDbEntity
  8
AM_0 ( Kontur 0.5 )
100
AcDbLine
 10
1214.466671289369
 20
530.6874158525608
 30
1.199999999999999
 11
1214.466671289369
 21
530.8699495735298
 31
1.199999999999999
  0
ARC
  5
14D3
330
74
100
AcDbEntity
  8
AM_0 ( Kontur 0.5 )
100
AcDbCircle
 10
1214.766782180181
 20
531.3100758316287
 30
1.199999999999999
 40
0.532707865393869
100
AcDbArc
 50
304.2890813515699
 51
235.7109186484301
  0
LINE
  5
14D4
330
74
100
AcDbEntity
  8
AM_0 ( Kontur 0.5 )
100
AcDbLine
 10
1215.27725117203
 20
530.6874158525608
 30
1.199999999999999
 11
1215.066893070994
 21
530.6874158525608
 31
1.199999999999999
  0
LINE
  5
14D5
330
74
100
AcDbEntity
  8
AM_0 ( Kontur 0.5 )
100
AcDbLine
 10
1215.066893070994
 20
530.6874158525608
 30
1.199999999999999
 11
1215.066893070994
 21
530.8699495735298
 31
1.199999999999999
  0
TEXT
  5
14D6
330
74
100
AcDbEntity
  8
AM_0 ( Kontur 0.5 )
100
AcDbText
 10
1194.666489563009
 20
556.2579059097388
 30
0.0
 40
2.5
  1
U
 41
1.200000017881389
100
AcDbText
  0
TEXT
  5
14D7
330
74
100
AcDbEntity
  8
AM_0 ( Kontur 0.5 )
100
AcDbText
 10
1204.971210161733
 20
533.9114637652559
 30
0.0
 40
1.08
  1
SENSITIVITY
 41
1.200000017881389
100
AcDbText
  0
TEXT
  5
14D8
330
74
100
AcDbEntity
  8
AM_0 ( Kontur 0.5 )
100
AcDbText
 10
1203.268920787974
 20
520.1380036752007
 30
0.532354860095024
 40
1.08
  1
PUMP
 41
1.200000017881389
100
AcDbText
  0
TEXT
  5
14D9
330
74
100
AcDbEntity
  8
AM_0 ( Kontur 0.5 )
100
AcDbText
 10
1193.206827461361
 20
516.7572041880597
 30
0.532354860095024
 40
1.26
  1
down
 41
1.200000017881389
100
AcDbText
  0
TEXT
  5
14DA
330
74
100
AcDbEntity
  8
AM_0 ( Kontur 0.5 )
100
AcDbText
 10
1192.707288981475
 20
524.6259124722563
 30
0.532354860095024
 40
1.26
  1
up
 41
1.200000017881389
100
AcDbText
  0
TEXT
  5
14DB
330
74
100
AcDbEntity
  8
AM_0 ( Kontur 0.5 )
100
AcDbText
 10
1189.506366022678
 20
522.9056793593703
 30
0.228
 40
1.700999999999999
  1
E3LC10
 50
90.0
 41
1.200000017881389
100
AcDbText
  0
TEXT
  5
14DC
330
74
100
AcDbEntity
  8
AM_0 ( Kontur 0.5 )
100
AcDbText
 10
1206.673006289552
 20
530.7129333149492
 30
1.199999999999999
 40
0.9
  1
5k
 41
1.200000017881389
100
AcDbText
  0
TEXT
  5
14DD
330
74
100
AcDbEntity
  8
AM_0 ( Kontur 0.5 )
100
AcDbText
 10
1210.753492096051
 20
530.7101386724601
 30
1.199999999999999
 40
0.9
  1
100k
 41
1.200000017881389
100
AcDbText
  0
CIRCLE
  5
14DE
330
74
100
AcDbEntity
  8
AM_0
100
AcDbCircle
 10
1197.585016351676
 20
521.2053341778795
 30
0.0
 40
2.591226949480187
  0
LWPOLYLINE
  5
14DF
330
74
100
AcDbEntity
  8
AM_0
100
AcDbPolyline
 90
        4
 70
     1
 43
0.0
 10
1197.298098355925
 20
523.4306331041076
 10
1197.910120639713
 20
523.4306331041076
 10
1197.910120639713
 20
520.3145842996713
 10
1197.298098355925
 20
520.3145842996713
1001
GENIUS_GENREC_14
1002
{
1000
PYDIR
1011
1197.298098355925
1021
519.6663077580711
1031
0.0
1002
}
1002
{
1000
PXDIR
1011
1197.910120639713
1021
523.1755030662902
1031
0.0
1002
}
1002
{
1000
PORI
1011
1197.298098355925
1021
523.1755030662902
1031
0.0
1002
}
1002
{
1000
PINS
1011
1197.298098355925
1021
523.1755030662902
1031
0.0
1002
}
1002
{
1000
PINS2
1011
1197.910120639713
1021
519.6663077580711
1031
0.0
1002
}
1002
{
1000
C
1070
     1
1002
}
1001
GENIUS_GENOBJ-N-REC_13
1002
{
1000
OWNER
1000
GEN
1002
}
1001
GENIUS_GENODEF_13
1002
{
1000
HIER
1070
     0
1002
}
1002
{
1000
MANEDIT
1070
     0
1002
}
1002
{
1000
NOSEL
1070
     0
1002
}
1002
{
1000
BEHIND
1070
     0
1002
}
1002
{
1000
OTHER
1070
     0
1002
}
1002
{
1000
REACTOR
1002
}
  0
LWPOLYLINE
  5
14E0
330
74
100
AcDbEntity
  8
AM_0
100
AcDbPolyline
 90
        4
 70
     1
 43
0.0
 10
1196.467998842839
 20
521.5438195312716
 10
1198.7557930761
 20
521.5438195312716
 10
1198.7557930761
 20
520.9322576501048
 10
1196.467998842839
 20
520.9322576501048
1001
GENIUS_GENREC_14
1002
{
1000
PYDIR
1011
1196.467998842839
1021
520.9322576501048
1031
0.0
1002
}
1002
{
1000
PXDIR
1011
1198.7557930761
1021
521.5438195312716
1031
0.0
1002
}
1002
{
1000
PORI
1011
1196.467998842839
1021
521.5438195312716
1031
0.0
1002
}
1002
{
1000
PINS
1011
1196.467998842839
1021
521.5438195312716
1031
0.0
1002
}
1002
{
1000
PINS2
1011
1198.7557930761
1021
520.9322576501048
1031
0.0
1002
}
1002
{
1000
C
1070
     1
1002
}
1001
GENIUS_GENODEF_13
1002
{
1000
HIER
1070
     0
1002
}
1002
{
1000
MANEDIT
1070
     0
1002
}
1002
{
1000
NOSEL
1070
     0
1002
}
1002
{
1000
BEHIND
1070
     0
1002
}
1002
{
1000
OTHER
1070
     0
1002
}
1002
{
1000
REACTOR
1002
}
1001
GENIUS_GENOBJ-N-REC_13
1002
{
1000
OWNER
1000
GEN
1002
}
  0
TEXT
  5
14E1
330
74
100
AcDbEntity
  8
AM_0 ( Kontur 0.5 )
100
AcDbText
 10
1193.439100747447
 20
529.5226834381984
 30
0.532354860095024
 40
1.26
  1
max
 41
1.200000017881389
100
AcDbText
  0
TEXT
  5
14E2
330
74
100
AcDbEntity
  8
AM_0 ( Kontur 0.5 )
100
AcDbText
 10
1192.93956226756
 20
537.391391722395
 30
0.532354860095024
 40
1.26
  1
min
 41
1.200000017881389
100
AcDbText
  0
CIRCLE
  5
14E3
330
74
100
AcDbEntity
  8
AM_0
100
AcDbCircle
 10
1197.817289637761
 20
533.9708134280182
 30
0.0
 40
2.591226949480187
  0
LWPOLYLINE
  5
14E4
330
74
100
AcDbEntity
  8
AM_0
100
AcDbPolyline
 90
        4
 70
     1
 43
0.0
 10
1197.53037164201
 20
536.1961123542463
 10
1198.142393925798
 20
536.1961123542463
 10
1198.142393925798
 20
533.08006354981
 10
1197.53037164201
 20
533.08006354981
1001
GENIUS_GENREC_14
1002
{
1000
PYDIR
1011
1197.53037164201
1021
532.4317870082098
1031
0.0
1002
}
1002
{
1000
PXDIR
1011
1198.142393925798
1021
535.9409823164289
1031
0.0
1002
}
1002
{
1000
PORI
1011
1197.53037164201
1021
535.9409823164289
1031
0.0
1002
}
1002
{
1000
PINS
1011
1197.53037164201
1021
535.9409823164289
1031
0.0
1002
}
1002
{
1000
PINS2
1011
1198.142393925798
1021
532.4317870082098
1031
0.0
1002
}
1002
{
1000
C
1070
     1
1002
}
1001
GENIUS_GENOBJ-N-REC_13
1002
{
1000
OWNER
1000
GEN
1002
}
1001
GENIUS_GENODEF_13
1002
{
1000
HIER
1070
     0
1002
}
1002
{
1000
MANEDIT
1070
     0
1002
}
1002
{
1000
NOSEL
1070
     0
1002
}
1002
{
1000
BEHIND
1070
     0
1002
}
1002
{
1000
OTHER
1070
     0
1002
}
1002
{
1000
REACTOR
1002
}
  0
LWPOLYLINE
  5
14E5
330
74
100
AcDbEntity
  8
AM_0
100
AcDbPolyline
 90
        4
 70
     1
 43
0.0
 10
1196.700272128924
 20
534.3092987814103
 10
1198.988066362185
 20
534.3092987814103
 10
1198.988066362185
 20
533.6977369002434
 10
1196.700272128924
 20
533.6977369002434
1001
GENIUS_GENREC_14
1002
{
1000
PYDIR
1011
1196.700272128924
1021
533.6977369002434
1031
0.0
1002
}
1002
{
1000
PXDIR
1011
1198.988066362185
1021
534.3092987814103
1031
0.0
1002
}
1002
{
1000
PORI
1011
1196.700272128924
1021
534.3092987814103
1031
0.0
1002
}
1002
{
1000
PINS
1011
1196.700272128924
1021
534.3092987814103
1031
0.0
1002
}
1002
{
1000
PINS2
1011
1198.988066362185
1021
533.6977369002434
1031
0.0
1002
}
1002
{
1000
C
1070
     1
1002
}
1001
GENIUS_GENODEF_13
1002
{
1000
HIER
1070
     0
1002
}
1002
{
1000
MANEDIT
1070
     0
1002
}
1002
{
1000
NOSEL
1070
     0
1002
}
1002
{
1000
BEHIND
1070
     0
1002
}
1002
{
1000
OTHER
1070
     0
1002
}
1002
{
1000
REACTOR
1002
}
1001
GENIUS_GENOBJ-N-REC_13
1002
{
1000
OWNER
1000
GEN
1002
}
  0
ARC
  5
14E6
330
74
100
AcDbEntity
  8
AM_0
100
AcDbCircle
 10
1198.162562399938
 20
534.1312600822567
 30
0.0
 40
3.27997056207226
100
AcDbArc
 50
280.3305468294768
 51
52.20829492778762
  0
ARC
  5
14E7
330
74
100
AcDbEntity
  8
AM_0
100
AcDbCircle
 10
1198.36881213662
 20
533.4852331812578
 30
0.0
 40
3.706476673967644
100
AcDbArc
 50
280.0989224860385
 51
60.88051308630419
  0
LINE
  5
14E8
330
74
100
AcDbEntity
  8
AM_0
100
AcDbLine
 10
1198.750748830935
 20
530.9044592500932
 30
0.0
 11
1199.018736191738
 21
529.8361828860103
 31
0.0
  0
ENDSEC
  0
SECTION
  2
OBJECTS
  0
DICTIONARY
  5
C
330
0
100
AcDbDictionary
281
     1
  3
ACAD_CIP_PREVIOUS_PRODUCT_INFO
350
11BA
  3
ACAD_COLOR
350
6A
  3
ACAD_DETAILVIEWSTYLE
350
11AE
  3
ACAD_FIELDLIST
350
11D6
  3
ACAD_GROUP
350
D
  3
ACAD_IMAGE_DICT
350
E80
  3
ACAD_IMAGE_VARS
350
E81
  3
ACAD_LAYOUT
350
69
  3
ACAD_MATERIAL
350
10
  3
ACAD_MLEADERSTYLE
350
6D
  3
ACAD_MLINESTYLE
350
66
  3
ACAD_PLOTSETTINGS
350
68
  3
ACAD_PLOTSTYLENAME
350
E
  3
ACAD_RENDER_RAPIDRT_SETTINGS
350
14FE
  3
ACAD_SCALELIST
350
3A
  3
ACAD_SECTIONVIEWSTYLE
350
11AC
  3
ACAD_TABLESTYLE
350
6B
  3
ACAD_VISUALSTYLE
350
29
  3
ACDB_RECOMPOSE_DATA
350
1579
  3
AcDbVariableDictionary
350
E8F
  3
AcmDictionary
350
D28
  3
AMG
350
CCE
  3
AMGSNAPSETTINGS
350
D5F
  0
DICTIONARY
  5
E25
330
2
100
AcDbDictionary
280
     1
281
     1
  3
ACAD_LAYERSTATES
360
1285
  3
AMLAYER_GROUPCOLORS
360
E26
  0
DICTIONARY
  5
E87
330
5C
100
AcDbDictionary
280
     1
281
     1
  3
ADSK_XREC_LAYER_RECONCILED
360
E88
  0
DICTIONARY
  5
E89
330
81
100
AcDbDictionary
280
     1
281
     1
  3
ADSK_XREC_LAYER_RECONCILED
360
E8A
  0
DICTIONARY
  5
E21
330
E20
100
AcDbDictionary
280
     1
281
     1
  3
ADSK_XREC_LAYER_RECONCILED
360
E22
  0
DICTIONARY
  5
E8B
330
E24
100
AcDbDictionary
280
     1
281
     1
  3
ADSK_XREC_LAYER_RECONCILED
360
E8C
  0
DICTIONARY
  5
E8D
330
E7E
100
AcDbDictionary
280
     1
281
     1
  3
ADSK_XREC_LAYER_RECONCILED
360
E8E
  0
DICTIONARY
  5
14A3
330
74
100
AcDbDictionary
280
     1
281
     1
  3
ACAD_SORTENTS
360
14A4
  0
IMAGEDEF_REACTOR
  5
1462
330
1461
100
AcDbRasterImageDefReactor
 90
        2
330
1461
  0
DICTIONARY
  5
1464
330
1463
100
AcDbDictionary
280
     1
281
     1
  3
ACAD_DIMASSOC
360
1465
  0
DICTIONARY
  5
1467
330
1466
100
AcDbDictionary
280
     1
281
     1
  3
ACAD_DIMASSOC
360
1468
  0
DICTIONARY
  5
146B
330
146A
100
AcDbDictionary
280
     1
281
     1
  3
ACAD_DIMASSOC
360
146C
  0
XRECORD
  5
11BA
102
{ACAD_REACTORS
330
C
102
}
330
C
100
AcDbXrecord
280
     1
300
AMECH_PP
300
2016
300
PDSU_F_S
  0
DICTIONARY
  5
6A
102
{ACAD_REACTORS
330
C
102
}
330
C
100
AcDbDictionary
281
     1
  0
DICTIONARY
  5
11AE
102
{ACAD_REACTORS
330
C
102
}
330
C
100
AcDbDictionary
281
     1
  3
Imperial24
350
11AF
  0
FIELDLIST
  5
11D6
102
{ACAD_REACTORS
330
C
102
}
330
C
100
AcDbIdSet
 90
        7
330
11D4
330
11D5
330
11D7
330
11D8
330
11E1
330
11E2
330
11E3
100
AcDbFieldList
  0
DICTIONARY
  5
D
102
{ACAD_REACTORS
330
C
102
}
330
C
100
AcDbDictionary
281
     1
  0
DICTIONARY
  5
E80
102
{ACAD_REACTORS
330
C
102
}
330
C
100
AcDbDictionary
281
     1
  3
oase living water 32
350
E82
  0
RASTERVARIABLES
  5
E81
102
{ACAD_REACTORS
330
C
102
}
330
C
100
AcDbRasterVariables
 90
        0
 70
     1
 71
     1
 72
     0
  0
DICTIONARY
  5
69
102
{ACAD_REACTORS
330
C
102
}
330
C
100
AcDbDictionary
281
     1
  3
Layout1
350
73
  3
Model
350
77
  0
DICTIONARY
  5
10
102
{ACAD_REACTORS
330
C
102
}
330
C
100
AcDbDictionary
281
     1
  3
ByBlock
350
19
  3
ByLayer
350
11
  3
Global
350
21
  0
DICTIONARY
  5
6D
102
{ACAD_REACTORS
330
C
102
}
330
C
100
AcDbDictionary
281
     1
  3
Standard
350
6E
  0
DICTIONARY
  5
66
102
{ACAD_REACTORS
330
C
102
}
330
C
100
AcDbDictionary
281
     1
  3
Standard
350
67
  0
DICTIONARY
  5
68
102
{ACAD_REACTORS
330
C
102
}
330
C
100
AcDbDictionary
281
     1
  0
ACDBDICTIONARYWDFLT
  5
E
102
{ACAD_REACTORS
330
C
102
}
330
C
100
AcDbDictionary
281
     1
  3
Normal
350
F
100
AcDbDictionaryWithDefault
340
F
  0
DICTIONARY
  5
14FE
102
{ACAD_REACTORS
330
C
102
}
330
C
100
AcDbDictionary
281
     1
  3
Hoch
350
1501
  3
Mittagsqualität
350
1503
  3
Mittel
350
1500
  3
Morgenqualität
350
1502
  3
Nachtqualität
350
1504
  3
Niedrig
350
14FF
  0
DICTIONARY
  5
3A
102
{ACAD_REACTORS
330
C
102
}
330
C
100
AcDbDictionary
281
     1
  3
A0
350
3B
  3
A1
350
3C
  3
A2
350
3D
  3
A3
350
3E
  3
A4
350
3F
  3
A5
350
40
  3
A6
350
41
  3
A7
350
42
  3
A8
350
43
  3
A9
350
44
  3
B0
350
45
  3
B1
350
46
  3
B2
350
47
  3
B3
350
48
  3
B4
350
49
  3
B5
350
4A
  3
B6
350
4B
  3
B7
350
4C
  3
B8
350
4D
  3
B9
350
4E
  3
C0
350
4F
  3
C1
350
50
  3
C2
350
51
  3
C3
350
52
  3
C4
350
53
  3
C5
350
54
  3
C6
350
55
  3
C7
350
56
  3
C8
350
57
  3
C9
350
58
  3
D0
350
59
  3
D1
350
5A
  3
D2
350
5B
  0
DICTIONARY
  5
11AC
102
{ACAD_REACTORS
330
C
102
}
330
C
100
AcDbDictionary
281
     1
  3
Imperial24
350
11AD
  0
DICTIONARY
  5
6B
102
{ACAD_REACTORS
330
C
102
}
330
C
100
AcDbDictionary
281
     1
  3
Standard
350
6C
  0
DICTIONARY
  5
29
102
{ACAD_REACTORS
330
C
102
}
330
C
100
AcDbDictionary
281
     1
  3
2dWireframe
350
2F
  3
3D Hidden
350
31
  3
3dWireframe
350
30
  3
Basic
350
2E
  3
Brighten
350
35
  3
ColorChange
350
39
  3
Conceptual
350
32
  3
Dim
350
34
  3
EdgeColorOff
350
11AB
  3
Facepattern
350
38
  3
Flat
350
2A
  3
FlatWithEdges
350
2B
  3
Gouraud
350
2C
  3
GouraudWithEdges
350
2D
  3
Hidden
350
11A3
  3
JitterOff
350
11A9
  3
Linepattern
350
37
  3
OverhangOff
350
11AA
  3
Realistic
350
33
  3
Shaded
350
11A8
  3
Shaded with edges
350
11A7
  3
Shades of Gray
350
11A4
  3
Sketchy
350
11A5
  3
Thicken
350
36
  3
Wireframe
350
11A2
  3
X-Ray
350
11A6
  0
XRECORD
  5
1579
102
{ACAD_REACTORS
330
C
102
}
330
C
100
AcDbXrecord
280
     1
 90
        1
330
6C
330
11AD
330
11AF
  0
DICTIONARY
  5
E8F
102
{ACAD_REACTORS
330
C
102
}
330
C
100
AcDbDictionary
281
     1
  3
CANNOSCALE
350
E92
  3
CMLEADERSTYLE
350
E91
  3
CTABLESTYLE
350
E90
  3
CVIEWDETAILSTYLE
350
1570
  3
CVIEWSECTIONSTYLE
350
1571
  3
LAYEREVAL
350
1572
  3
LAYERNOTIFY
350
1573
  3
LIGHTINGUNITS
350
11A0
  3
MSLTSCALE
350
119F
  0
DICTIONARY
  5
D28
102
{ACAD_REACTORS
330
C
102
}
330
C
100
AcDbDictionary
281
     1
  3
AcmBOM
350
117F
  3
AcmStdDictionary
350
D35
  3
AMDTSECTSYM_ARROWCOLOR
350
D4A
  0
DICTIONARY
  5
CCE
102
{ACAD_REACTORS
330
C
102
}
330
C
100
AcDbDictionary
281
     1
  0
DICTIONARY
  5
D5F
102
{ACAD_REACTORS
330
C
102
}
330
C
100
AcDbDictionary
281
     1
  0
DICTIONARY
  5
1285
102
{ACAD_REACTORS
330
E25
102
}
330
E25
100
AcDbDictionary
281
     1
  0
DICTIONARY
  5
E26
102
{ACAD_REACTORS
330
E25
102
}
330
E25
100
AcDbDictionary
280
     1
281
     1
  0
XRECORD
  5
E88
102
{ACAD_REACTORS
330
E87
102
}
330
E87
100
AcDbXrecord
280
     1
290
     1
  0
XRECORD
  5
E8A
102
{ACAD_REACTORS
330
E89
102
}
330
E89
100
AcDbXrecord
280
     1
290
     1
  0
XRECORD
  5
E22
102
{ACAD_REACTORS
330
E21
102
}
330
E21
100
AcDbXrecord
280
     1
290
     1
  0
XRECORD
  5
E8C
102
{ACAD_REACTORS
330
E8B
102
}
330
E8B
100
AcDbXrecord
280
     1
290
     1
  0
XRECORD
  5
E8E
102
{ACAD_REACTORS
330
E8D
102
}
330
E8D
100
AcDbXrecord
280
     1
290
     1
  0
SORTENTSTABLE
  5
14A4
102
{ACAD_REACTORS
330
14A3
102
}
330
14A3
100
AcDbSortentsTable
330
74
  0
DIMASSOC
  5
1465
102
{ACAD_REACTORS
330
1464
102
}
330
1464
100
AcDbDimAssoc
330
1463
 90
        3
 70
     0
 71
     0
  1
AcDbOsnapPointRef
 72
    11
331
1399
 73
     0
 91
        0
 40
1.0
 10
0.0
 20
0.0
 30
0.0
332
13D9
 74
     0
 92
        0
 75
     0
  1
AcDbOsnapPointRef
 72
    11
331
139A
 73
     0
 91
        0
 40
0.9999999999999944
 10
0.0
 20
0.0
 30
0.0
332
13DA
 74
     0
 92
        0
 75
     0
  0
DIMASSOC
  5
1468
102
{ACAD_REACTORS
330
1467
102
}
330
1467
100
AcDbDimAssoc
330
1466
 90
        3
 70
     0
 71
     0
  1
AcDbOsnapPointRef
 72
    11
331
139C
 73
     0
 91
        0
 40
0.0
 10
0.0
 20
0.0
 30
0.0
332
13DA
 74
     0
 92
        0
 75
     0
  1
AcDbOsnapPointRef
 72
    11
331
139B
 73
     0
 91
        0
 40
0.0
 10
0.0
 20
0.0
 30
0.0
332
13D6
 74
     0
 92
        0
 75
     0
  0
DIMASSOC
  5
146C
102
{ACAD_REACTORS
330
146B
102
}
330
146B
100
AcDbDimAssoc
330
146A
 90
        3
 70
     0
 71
     0
  1
AcDbOsnapPointRef
 72
    11
331
13F0
 73
     0
 91
        0
 40
6.283185307179585
 10
0.0
 20
0.0
 30
0.0
332
1469
 74
     0
 92
        0
 75
     0
  1
AcDbOsnapPointRef
 72
    11
331
13EB
 73
     0
 91
        0
 40
0.0
 10
0.0
 20
0.0
 30
0.0
332
13F4
 74
     0
 92
        0
 75
     0
  0
ACDBDETAILVIEWSTYLE
  5
11AF
102
{ACAD_XDICTIONARY
360
1577
102
}
102
{ACAD_REACTORS
330
11AE
330
11C8
102
}
330
11AE
100
AcDbModelDocViewStyle
 70
     0
  3
Imperial24
290
     0
100
AcDbDetailViewStyle
 70
     0
 71
     0
 90
        3
 71
     1
340
5D
 62
   256
 40
0.24
340
0
 62
   256
 40
0.24
300

 40
0.36
280
     3
 71
     2
340
64
 90
       25
 62
   256
 71
     3
340
5D
 62
   256
 40
0.24
 90
        1
 40
0.75
 90
        1
300
%<\AcVar ViewType \f "%tc1">% %<\AcVar ViewDetailId>%\PVARIA %<\AcVar ViewScale \f "%sn">%
 71
     4
340
64
 90
       25
 62
   256
340
64
 90
       25
 62
   256
280
     0
  0
IMAGEDEF
  5
E82
102
{ACAD_REACTORS
330
E80
330
E86
330
1351
330
1462
102
}
330
E80
100
AcDbRasterImageDef
 90
        0
  1
Z:\T0-CAD\Config_Autodesk\OASE Anpassungen\oase living water 32.BMP
 10
587.0
 20
251.0
 11
0.0846668360003387
 21
0.0846668360003387
280
     1
281
     2
  0
LAYOUT
  5
73
102
{ACAD_REACTORS
330
69
102
}
330
69
100
AcDbPlotSettings
  1

  2
C:\Dokumente und Einstellungen\guzb562\Anwendungsdaten\Autodesk\Autodesk Mechanical Desktop 2008\R17.1\deu\plotters\HP DesignJet 500 42+HPGL2 Card.pc3
  4

  6

 40
0.0
 41
0.0
 42
0.0
 43
0.0
 44
0.0
 45
0.0
 46
0.0
 47
0.0
 48
0.0
 49
0.0
140
0.0
141
0.0
142
1.0
143
1.0
 70
   688
 72
     0
 73
     0
 74
     5
  7
C:\Dokumente und Einstellungen\guzb562\Anwendungsdaten\Autodesk\Autodesk Mechanical Desktop 2008\R17.1\deu\Plot Styles\OASE.ctb
 75
    16
147
1.0
 76
     0
 77
     2
 78
   300
148
0.0
149
0.0
100
AcDbLayout
  1
Layout1
 70
     1
 71
     1
 10
0.0
 20
0.0
 11
12.0
 21
9.0
 12
0.0
 22
0.0
 32
0.0
 14
1.000000000000000E+20
 24
1.000000000000000E+20
 34
1.000000000000000E+20
 15
-1.000000000000000E+20
 25
-1.000000000000000E+20
 35
-1.000000000000000E+20
146
0.0
 13
0.0
 23
0.0
 33
0.0
 16
1.0
 26
0.0
 36
0.0
 17
0.0
 27
1.0
 37
0.0
 76
     0
330
70
  0
LAYOUT
  5
77
102
{ACAD_REACTORS
330
69
102
}
330
69
100
AcDbPlotSettings
  1

  2
Kein
  4
Letter_(8.50_x_11.00_Inches)
  6

 40
6.349999904632568
 41
6.349999904632568
 42
6.350006103515625
 43
6.350006103515625
 44
215.8999938964844
 45
279.3999938964844
 46
0.0
 47
0.0
 48
0.0
 49
0.0
140
0.0
141
0.0
142
1.0
143
209.4220042239899
 70
 11952
 72
     0
 73
     1
 74
     0
  7
C:\Dokumente und Einstellungen\guzb562\Anwendungsdaten\Autodesk\Autodesk Mechanical Desktop 2008\R17.1\deu\Plot Styles\OASE.ctb
 75
     0
147
0.0047750474154112
 76
     0
 77
     2
 78
   300
148
-4135.171547798299
149
3300.438702515988
100
AcDbLayout
  1
Model
 70
     1
 71
     0
 10
0.0
 20
0.0
 11
12.0
 21
9.0
 12
0.0
 22
0.0
 32
0.0
 14
0.0
 24
0.0
 34
0.0
 15
0.0
 25
0.0
 35
0.0
146
0.0
 13
0.0
 23
0.0
 33
0.0
 16
1.0
 26
0.0
 36
0.0
 17
0.0
 27
1.0
 37
0.0
 76
     0
330
74
331
84
1001
ACAD_PSEXT
1000
Kein
1000
Kein
1000
Nicht anwendbar
1000
Das Layout wird erst geplottet, wenn ein neuer Plotter-Konfigurationsname ausgewählt wird.
1070
     0
  0
MATERIAL
  5
19
102
{ACAD_XDICTIONARY
360
1A
102
}
102
{ACAD_REACTORS
330
10
102
}
330
10
100
AcDbMaterial
  1
ByBlock
 72
     0
 43
0.0208333333333333
 43
0.0
 43
0.0
 43
0.0
 43
0.0
 43
0.0208333333333333
 43
0.0
 43
0.0
 43
0.0
 43
0.0
 43
1.0
 43
0.0
 43
0.0
 43
0.0
 43
0.0
 43
1.0
 77
     0
 47
0.0208333333333333
 47
0.0
 47
0.0
 47
0.0
 47
0.0
 47
0.0208333333333333
 47
0.0
 47
0.0
 47
0.0
 47
0.0
 47
1.0
 47
0.0
 47
0.0
 47
0.0
 47
0.0
 47
1.0
171
     0
 49
0.0208333333333333
 49
0.0
 49
0.0
 49
0.0
 49
0.0
 49
0.0208333333333333
 49
0.0
 49
0.0
 49
0.0
 49
0.0
 49
1.0
 49
0.0
 49
0.0
 49
0.0
 49
0.0
 49
1.0
175
     0
142
0.0208333333333333
142
0.0
142
0.0
142
0.0
142
0.0
142
0.0208333333333333
142
0.0
142
0.0
142
0.0
142
0.0
142
1.0
142
0.0
142
0.0
142
0.0
142
0.0
142
1.0
179
     0
144
0.0208333333333333
144
0.0
144
0.0
144
0.0
144
0.0
144
0.0208333333333333
144
0.0
144
0.0
144
0.0
144
0.0
144
1.0
144
0.0
144
0.0
144
0.0
144
0.0
144
1.0
147
0.0208333333333333
147
0.0
147
0.0
147
0.0
147
0.0
147
0.0208333333333333
147
0.0
147
0.0
147
0.0
147
0.0
147
1.0
147
0.0
147
0.0
147
0.0
147
0.0
147
1.0
  0
MATERIAL
  5
11
102
{ACAD_XDICTIONARY
360
12
102
}
102
{ACAD_REACTORS
330
10
102
}
330
10
100
AcDbMaterial
  1
ByLayer
 72
     0
 43
0.0208333333333333
 43
0.0
 43
0.0
 43
0.0
 43
0.0
 43
0.0208333333333333
 43
0.0
 43
0.0
 43
0.0
 43
0.0
 43
1.0
 43
0.0
 43
0.0
 43
0.0
 43
0.0
 43
1.0
 77
     0
 47
0.0208333333333333
 47
0.0
 47
0.0
 47
0.0
 47
0.0
 47
0.0208333333333333
 47
0.0
 47
0.0
 47
0.0
 47
0.0
 47
1.0
 47
0.0
 47
0.0
 47
0.0
 47
0.0
 47
1.0
171
     0
 49
0.0208333333333333
 49
0.0
 49
0.0
 49
0.0
 49
0.0
 49
0.0208333333333333
 49
0.0
 49
0.0
 49
0.0
 49
0.0
 49
1.0
 49
0.0
 49
0.0
 49
0.0
 49
0.0
 49
1.0
175
     0
142
0.0208333333333333
142
0.0
142
0.0
142
0.0
142
0.0
142
0.0208333333333333
142
0.0
142
0.0
142
0.0
142
0.0
142
1.0
142
0.0
142
0.0
142
0.0
142
0.0
142
1.0
179
     0
144
0.0208333333333333
144
0.0
144
0.0
144
0.0
144
0.0
144
0.0208333333333333
144
0.0
144
0.0
144
0.0
144
0.0
144
1.0
144
0.0
144
0.0
144
0.0
144
0.0
144
1.0
147
0.0208333333333333
147
0.0
147
0.0
147
0.0
147
0.0
147
0.0208333333333333
147
0.0
147
0.0
147
0.0
147
0.0
147
1.0
147
0.0
147
0.0
147
0.0
147
0.0
147
1.0
  0
MATERIAL
  5
21
102
{ACAD_XDICTIONARY
360
22
102
}
102
{ACAD_REACTORS
330
10
102
}
330
10
100
AcDbMaterial
  1
Global
 72
     0
 43
0.0208333333333333
 43
0.0
 43
0.0
 43
0.0
 43
0.0
 43
0.0208333333333333
 43
0.0
 43
0.0
 43
0.0
 43
0.0
 43
1.0
 43
0.0
 43
0.0
 43
0.0
 43
0.0
 43
1.0
 77
     0
 47
0.0208333333333333
 47
0.0
 47
0.0
 47
0.0
 47
0.0
 47
0.0208333333333333
 47
0.0
 47
0.0
 47
0.0
 47
0.0
 47
1.0
 47
0.0
 47
0.0
 47
0.0
 47
0.0
 47
1.0
171
     0
 49
0.0208333333333333
 49
0.0
 49
0.0
 49
0.0
 49
0.0
 49
0.0208333333333333
 49
0.0
 49
0.0
 49
0.0
 49
0.0
 49
1.0
 49
0.0
 49
0.0
 49
0.0
 49
0.0
 49
1.0
175
     0
142
0.0208333333333333
142
0.0
142
0.0
142
0.0
142
0.0
142
0.0208333333333333
142
0.0
142
0.0
142
0.0
142
0.0
142
1.0
142
0.0
142
0.0
142
0.0
142
0.0
142
1.0
179
     0
144
0.0208333333333333
144
0.0
144
0.0
144
0.0
144
0.0
144
0.0208333333333333
144
0.0
144
0.0
144
0.0
144
0.0
144
1.0
144
0.0
144
0.0
144
0.0
144
0.0
144
1.0
147
0.0208333333333333
147
0.0
147
0.0
147
0.0
147
0.0
147
0.0208333333333333
147
0.0
147
0.0
147
0.0
147
0.0
147
1.0
147
0.0
147
0.0
147
0.0
147
0.0
147
1.0
  0
MLEADERSTYLE
  5
6E
102
{ACAD_REACTORS
330
6D
102
}
330
6D
100
AcDbMLeaderStyle
179
     2
170
     2
171
     1
172
     0
 90
        2
 40
0.0
 41
0.0
173
     1
 91
-1056964608
340
62
 92
       -2
290
     1
 42
0.09
291
     1
 43
0.36
  3
Standard
 44
0.18
300

342
5D
174
     1
178
     6
175
     1
176
     0
 93
-1056964608
 45
0.18
292
     0
297
     0
 46
0.18
 94
-1056964608
 47
1.0
 49
1.0
140
1.0
293
     1
141
0.0
294
     1
177
     0
142
1.0
295
     0
296
     0
143
0.125
271
     0
272
     9
273
     9
298
     0
  0
MLINESTYLE
  5
67
102
{ACAD_REACTORS
330
66
102
}
330
66
100
AcDbMlineStyle
  2
STANDARD
 70
     0
  3

 62
   256
 51
90.0
 52
90.0
 71
     2
 49
0.5
 62
   256
  6
BYLAYER
 49
-0.5
 62
   256
  6
BYLAYER
  0
ACDBPLACEHOLDER
  5
F
102
{ACAD_REACTORS
330
E
102
}
330
E
  0
RAPIDRTRENDERSETTINGS
  5
1501
102
{ACAD_REACTORS
330
14FE
102
}
330
14FE
100
AcDbRenderSettings
 90
        2
  1
Hoch
290
     1
290
     0
290
     1
290
     1
  1

  1
Wendet 10 Render-Ebenen an
 90
        2
100
AcDbRapidRTRenderSettings
 90
        3
 70
     0
 90
       10
 90
        1
 70
     2
 70
     2
 40
3.0
 40
3.0
290
     1
  0
RAPIDRTRENDERSETTINGS
  5
1503
102
{ACAD_REACTORS
330
14FE
102
}
330
14FE
100
AcDbRenderSettings
 90
        2
  1
Mittagsqualität
290
     1
290
     0
290
     1
290
     1
  1

  1
Rendert für 60 Minuten
 90
        4
100
AcDbRapidRTRenderSettings
 90
        3
 70
     1
 90
        1
 90
       60
 70
     2
 70
     2
 40
3.0
 40
3.0
290
     1
  0
RAPIDRTRENDERSETTINGS
  5
1500
102
{ACAD_REACTORS
330
14FE
102
}
330
14FE
100
AcDbRenderSettings
 90
        2
  1
Mittel
290
     1
290
     0
290
     1
290
     1
  1

  1
Wendet 5 Render-Ebenen an
 90
        1
100
AcDbRapidRTRenderSettings
 90
        3
 70
     0
 90
        5
 90
        1
 70
     1
 70
     2
 40
3.0
 40
3.0
290
     1
  0
RAPIDRTRENDERSETTINGS
  5
1502
102
{ACAD_REACTORS
330
14FE
102
}
330
14FE
100
AcDbRenderSettings
 90
        2
  1
Morgenqualität
290
     1
290
     0
290
     1
290
     1
  1

  1
Rendert für 10 Minuten
 90
        3
100
AcDbRapidRTRenderSettings
 90
        3
 70
     1
 90
        1
 90
       10
 70
     1
 70
     2
 40
3.0
 40
3.0
290
     1
  0
RAPIDRTRENDERSETTINGS
  5
1504
102
{ACAD_REACTORS
330
14FE
102
}
330
14FE
100
AcDbRenderSettings
 90
        2
  1
Nachtqualität
290
     1
290
     0
290
     1
290
     1
  1

  1
Rendert für 12 Stunden
 90
        5
100
AcDbRapidRTRenderSettings
 90
        3
 70
     1
 90
        1
 90
      720
 70
     2
 70
     2
 40
3.0
 40
3.0
290
     1
  0
RAPIDRTRENDERSETTINGS
  5
14FF
102
{ACAD_REACTORS
330
14FE
102
}
330
14FE
100
AcDbRenderSettings
 90
        2
  1
Niedrig
290
     1
290
     0
290
     1
290
     1
  1

  1
Wendet 1 Render-Ebene an
 90
        0
100
AcDbRapidRTRenderSettings
 90
        3
 70
     0
 90
        1
 90
        1
 70
     0
 70
     2
 40
3.0
 40
3.0
290
     1
  0
SCALE
  5
3B
102
{ACAD_REACTORS
330
3A
102
}
330
3A
100
AcDbScale
 70
     0
300
1:1
140
1.0
141
1.0
290
     1
  0
SCALE
  5
3C
102
{ACAD_REACTORS
330
3A
102
}
330
3A
100
AcDbScale
 70
     0
300
1:2
140
1.0
141
2.0
290
     0
  0
SCALE
  5
3D
102
{ACAD_REACTORS
330
3A
102
}
330
3A
100
AcDbScale
 70
     0
300
1:4
140
1.0
141
4.0
290
     0
  0
SCALE
  5
3E
102
{ACAD_REACTORS
330
3A
102
}
330
3A
100
AcDbScale
 70
     0
300
1:5
140
1.0
141
5.0
290
     0
  0
SCALE
  5
3F
102
{ACAD_REACTORS
330
3A
102
}
330
3A
100
AcDbScale
 70
     0
300
1:8
140
1.0
141
8.0
290
     0
  0
SCALE
  5
40
102
{ACAD_REACTORS
330
3A
102
}
330
3A
100
AcDbScale
 70
     0
300
1:10
140
1.0
141
10.0
290
     0
  0
SCALE
  5
41
102
{ACAD_REACTORS
330
3A
102
}
330
3A
100
AcDbScale
 70
     0
300
1:16
140
1.0
141
16.0
290
     0
  0
SCALE
  5
42
102
{ACAD_REACTORS
330
3A
102
}
330
3A
100
AcDbScale
 70
     0
300
1:20
140
1.0
141
20.0
290
     0
  0
SCALE
  5
43
102
{ACAD_REACTORS
330
3A
102
}
330
3A
100
AcDbScale
 70
     0
300
1:30
140
1.0
141
30.0
290
     0
  0
SCALE
  5
44
102
{ACAD_REACTORS
330
3A
102
}
330
3A
100
AcDbScale
 70
     0
300
1:40
140
1.0
141
40.0
290
     0
  0
SCALE
  5
45
102
{ACAD_REACTORS
330
3A
102
}
330
3A
100
AcDbScale
 70
     0
300
1:50
140
1.0
141
50.0
290
     0
  0
SCALE
  5
46
102
{ACAD_REACTORS
330
3A
102
}
330
3A
100
AcDbScale
 70
     0
300
1:100
140
1.0
141
100.0
290
     0
  0
SCALE
  5
47
102
{ACAD_REACTORS
330
3A
102
}
330
3A
100
AcDbScale
 70
     0
300
2:1
140
2.0
141
1.0
290
     0
  0
SCALE
  5
48
102
{ACAD_REACTORS
330
3A
102
}
330
3A
100
AcDbScale
 70
     0
300
4:1
140
4.0
141
1.0
290
     0
  0
SCALE
  5
49
102
{ACAD_REACTORS
330
3A
102
}
330
3A
100
AcDbScale
 70
     0
300
8:1
140
8.0
141
1.0
290
     0
  0
SCALE
  5
4A
102
{ACAD_REACTORS
330
3A
102
}
330
3A
100
AcDbScale
 70
     0
300
10:1
140
10.0
141
1.0
290
     0
  0
SCALE
  5
4B
102
{ACAD_REACTORS
330
3A
102
}
330
3A
100
AcDbScale
 70
     0
300
100:1
140
100.0
141
1.0
290
     0
  0
SCALE
  5
4C
102
{ACAD_REACTORS
330
3A
102
}
330
3A
100
AcDbScale
 70
     0
300
1/128" = 1'-0"
140
0.0078125
141
12.0
290
     0
  0
SCALE
  5
4D
102
{ACAD_REACTORS
330
3A
102
}
330
3A
100
AcDbScale
 70
     0
300
1/64" = 1'-0"
140
0.015625
141
12.0
290
     0
  0
SCALE
  5
4E
102
{ACAD_REACTORS
330
3A
102
}
330
3A
100
AcDbScale
 70
     0
300
1/32" = 1'-0"
140
0.03125
141
12.0
290
     0
  0
SCALE
  5
4F
102
{ACAD_REACTORS
330
3A
102
}
330
3A
100
AcDbScale
 70
     0
300
1/16" = 1'-0"
140
0.0625
141
12.0
290
     0
  0
SCALE
  5
50
102
{ACAD_REACTORS
330
3A
102
}
330
3A
100
AcDbScale
 70
     0
300
3/32" = 1'-0"
140
0.09375
141
12.0
290
     0
  0
SCALE
  5
51
102
{ACAD_REACTORS
330
3A
102
}
330
3A
100
AcDbScale
 70
     0
300
1/8" = 1'-0"
140
0.125
141
12.0
290
     0
  0
SCALE
  5
52
102
{ACAD_REACTORS
330
3A
102
}
330
3A
100
AcDbScale
 70
     0
300
3/16" = 1'-0"
140
0.1875
141
12.0
290
     0
  0
SCALE
  5
53
102
{ACAD_REACTORS
330
3A
102
}
330
3A
100
AcDbScale
 70
     0
300
1/4" = 1'-0"
140
0.25
141
12.0
290
     0
  0
SCALE
  5
54
102
{ACAD_REACTORS
330
3A
102
}
330
3A
100
AcDbScale
 70
     0
300
3/8" = 1'-0"
140
0.375
141
12.0
290
     0
  0
SCALE
  5
55
102
{ACAD_REACTORS
330
3A
102
}
330
3A
100
AcDbScale
 70
     0
300
1/2" = 1'-0"
140
0.5
141
12.0
290
     0
  0
SCALE
  5
56
102
{ACAD_REACTORS
330
3A
102
}
330
3A
100
AcDbScale
 70
     0
300
3/4" = 1'-0"
140
0.75
141
12.0
290
     0
  0
SCALE
  5
57
102
{ACAD_REACTORS
330
3A
102
}
330
3A
100
AcDbScale
 70
     0
300
1" = 1'-0"
140
1.0
141
12.0
290
     0
  0
SCALE
  5
58
102
{ACAD_REACTORS
330
3A
102
}
330
3A
100
AcDbScale
 70
     0
300
1-1/2" = 1'-0"
140
1.5
141
12.0
290
     0
  0
SCALE
  5
59
102
{ACAD_REACTORS
330
3A
102
}
330
3A
100
AcDbScale
 70
     0
300
3" = 1'-0"
140
3.0
141
12.0
290
     0
  0
SCALE
  5
5A
102
{ACAD_REACTORS
330
3A
102
}
330
3A
100
AcDbScale
 70
     0
300
6" = 1'-0"
140
6.0
141
12.0
290
     0
  0
SCALE
  5
5B
102
{ACAD_REACTORS
330
3A
102
}
330
3A
100
AcDbScale
 70
     0
300
1'-0" = 1'-0"
140
12.0
141
12.0
290
     0
  0
ACDBSECTIONVIEWSTYLE
  5
11AD
102
{ACAD_XDICTIONARY
360
1575
102
}
102
{ACAD_REACTORS
330
11AC
330
11C7
102
}
330
11AC
100
AcDbModelDocViewStyle
 70
     0
  3
Imperial24
290
     0
100
AcDbSectionViewStyle
 70
     0
 71
     0
 90
       78
 71
     1
340
5D
 62
   256
 40
0.24
340
0
340
0
 62
   256
 40
0.24
300
I, O, Q, S, X, Z
 40
0.48
 90
        3
 40
0.18
 90
        1
 71
     2
340
64
 90
       25
 62
   256
340
64
 90
       50
 62
   256
 40
0.24
 40
0.0
 40
0.24
 71
     3
340
5D
 62
   256
 40
0.24
 90
        1
 40
0.75
 90
        1
300
%<\AcVar ViewType \f "%tc1">% %<\AcVar ViewSectionStartId>%-%<\AcVar ViewSectionEndId>%\PVARIA %<\AcVar ViewScale \f "%sn">%
 71
     4
 62
   256
 62
   257
300
ANSI31
 40
1.0
 90
        0
290
     0
290
     0
 90
        6
 40
0.0
 40
1.570796326794896
 40
0.2617993877991494
 40
1.308996938995747
 40
-0.2617993877991494
 40
1.832595714594046
  0
TABLESTYLE
  5
6C
102
{ACAD_XDICTIONARY
360
E93
102
}
102
{ACAD_REACTORS
330
6B
102
}
330
6B
100
AcDbTableStyle
280
     0
  3
Standard
 70
     0
 71
     0
 40
0.06
 41
0.06
280
     0
281
     0
  7
STANDARD
140
0.18
170
     2
 62
     0
 63
     7
283
     0
 90
      512
 91
        0
  1

274
    -2
284
     1
 64
     0
275
    -2
285
     1
 65
     0
276
    -2
286
     1
 66
     0
277
    -2
287
     1
 67
     0
278
    -2
288
     1
 68
     0
279
    -2
289
     1
 69
     0
  7
STANDARD
140
0.25
170
     5
 62
     0
 63
     7
283
     0
 90
      512
 91
        0
  1

274
    -2
284
     1
 64
     0
275
    -2
285
     1
 65
     0
276
    -2
286
     1
 66
     0
277
    -2
287
     1
 67
     0
278
    -2
288
     1
 68
     0
279
    -2
289
     1
 69
     0
  7
STANDARD
140
0.18
170
     5
 62
     0
 63
     7
283
     0
 90
      512
 91
        0
  1

274
    -2
284
     1
 64
     0
275
    -2
285
     1
 65
     0
276
    -2
286
     1
 66
     0
277
    -2
287
     1
 67
     0
278
    -2
288
     1
 68
     0
279
    -2
289
     1
 69
     0
  0
VISUALSTYLE
  5
2F
102
{ACAD_REACTORS
330
29
102
}
330
29
100
AcDbVisualStyle
  2
2dWireframe
 70
     4
177
     3
291
     0
 70
    58
 90
        0
176
     1
 90
        2
176
     1
 90
        0
176
     1
 90
        0
176
     1
 40
0.6
176
     1
 40
30.0
176
     1
 62
     7
420
 16777215
176
     1
 90
        1
176
     1
 90
        4
176
     1
 62
     7
176
     1
 62
   257
176
     1
 90
        1
176
     1
 90
        1
176
     1
 40
1.0
176
     1
 90
        0
176
     1
 62
   257
176
     1
 40
1.0
176
     1
 90
        1
176
     1
 90
        6
176
     1
 90
        2
176
     1
 62
     7
176
     1
 90
        5
176
     1
 90
        0
176
     1
 90
        0
176
     1
290
     0
176
     1
 90
        1
176
     1
 40
0.0
176
     1
 90
        0
176
     1
290
     1
176
     1
290
     1
176
     1
290
     0
176
     1
290
     0
176
     1
290
     0
176
     1
290
     0
176
     1
290
     0
176
     1
290
     0
176
     1
290
     0
176
     1
 90
       50
176
     1
 40
0.0
176
     1
 40
1.0
176
     1
 90
        0
176
     1
 62
    18
420
        0
176
     1
 90
       50
176
     1
 90
        3
176
     1
 62
     5
420
      255
176
     1
290
     0
176
     1
 90
       50
176
     1
 90
       50
176
     1
 90
       50
176
     1
290
     0
176
     1
 90
       50
176
     1
 62
   256
176
     0
 40
1.0
176
     0
 90
        2
176
     1
  1
strokes_ogs.tif
176
     1
290
     0
176
     1
 40
1.0
176
     1
 40
1.0
176
     1
1001
ACAD
1000
AcDbSavedByObjectVersion
1070
     0
  0
VISUALSTYLE
  5
31
102
{ACAD_REACTORS
330
29
102
}
330
29
100
AcDbVisualStyle
  2
3D Hidden
 70
     6
177
     3
291
     0
 70
    58
 90
        1
176
     1
 90
        2
176
     1
 90
        2
176
     1
 90
        0
176
     1
 40
0.6
176
     1
 40
30.0
176
     1
 62
     7
420
 16777215
176
     1
 90
        2
176
     1
 90
        2
176
     1
 62
     7
176
     1
 62
   257
176
     1
 90
        2
176
     1
 90
        1
176
     1
 40
40.0
176
     1
 90
        0
176
     1
 62
   257
176
     1
 40
1.0
176
     1
 90
        1
176
     1
 90
        6
176
     1
 90
        2
176
     1
 62
     7
176
     1
 90
        3
176
     1
 90
        0
176
     1
 90
        0
176
     1
290
     0
176
     1
 90
        1
176
     1
 40
0.0
176
     1
 90
        0
176
     1
290
     0
176
     1
290
     1
176
     1
290
     1
176
     1
290
     0
176
     1
290
     0
176
     1
290
     0
176
     1
290
     0
176
     1
290
     0
176
     1
290
     0
176
     1
 90
       50
176
     1
 40
0.0
176
     1
 40
1.0
176
     1
 90
        0
176
     1
 62
    18
420
        0
176
     1
 90
       50
176
     1
 90
        3
176
     1
 62
     5
420
      255
176
     1
290
     0
176
     1
 90
       50
176
     1
 90
       50
176
     1
 90
       50
176
     1
290
     0
176
     1
 90
       50
176
     1
 62
   256
176
     0
 40
1.0
176
     0
 90
        2
176
     1
  1
strokes_ogs.tif
176
     1
290
     0
176
     1
 40
1.0
176
     1
 40
1.0
176
     1
1001
ACAD
1000
AcDbSavedByObjectVersion
1070
     0
  0
VISUALSTYLE
  5
30
102
{ACAD_REACTORS
330
29
102
}
330
29
100
AcDbVisualStyle
  2
3dWireframe
 70
     5
177
     3
291
     0
 70
    58
 90
        0
176
     1
 90
        2
176
     1
 90
        0
176
     1
 90
        0
176
     1
 40
0.6
176
     1
 40
30.0
176
     1
 62
     7
420
 16777215
176
     1
 90
        1
176
     1
 90
        4
176
     1
 62
     7
176
     1
 62
   257
176
     1
 90
        1
176
     1
 90
        1
176
     1
 40
1.0
176
     1
 90
        0
176
     1
 62
   257
176
     1
 40
1.0
176
     1
 90
        1
176
     1
 90
        6
176
     1
 90
        2
176
     1
 62
     7
176
     1
 90
        5
176
     1
 90
        0
176
     1
 90
        0
176
     1
290
     0
176
     1
 90
        1
176
     1
 40
0.0
176
     1
 90
        0
176
     1
290
     0
176
     1
290
     1
176
     1
290
     1
176
     1
290
     0
176
     1
290
     0
176
     1
290
     0
176
     1
290
     0
176
     1
290
     0
176
     1
290
     0
176
     1
 90
       50
176
     1
 40
0.0
176
     1
 40
1.0
176
     1
 90
        0
176
     1
 62
    18
420
        0
176
     1
 90
       50
176
     1
 90
        3
176
     1
 62
     5
420
      255
176
     1
290
     0
176
     1
 90
       50
176
     1
 90
       50
176
     1
 90
       50
176
     1
290
     0
176
     1
 90
       50
176
     1
 62
   256
176
     0
 40
1.0
176
     0
 90
        2
176
     1
  1
strokes_ogs.tif
176
     1
290
     0
176
     1
 40
1.0
176
     1
 40
1.0
176
     1
1001
ACAD
1000
AcDbSavedByObjectVersion
1070
     0
  0
VISUALSTYLE
  5
2E
102
{ACAD_REACTORS
330
29
102
}
330
29
100
AcDbVisualStyle
  2
Basic
 70
     7
177
     3
291
     1
 70
    58
 90
        1
176
     1
 90
        0
176
     1
 90
        1
176
     1
 90
        0
176
     1
 40
0.6
176
     1
 40
30.0
176
     1
 62
     7
420
 16777215
176
     1
 90
        0
176
     1
 90
        4
176
     1
 62
     7
176
     1
 62
   257
176
     1
 90
        1
176
     1
 90
        1
176
     1
 40
1.0
176
     1
 90
        8
176
     1
 62
     7
176
     1
 40
1.0
176
     1
 90
        1
176
     1
 90
        6
176
     1
 90
        2
176
     1
 62
     7
176
     1
 90
        5
176
     1
 90
        0
176
     1
 90
        0
176
     1
290
     0
176
     1
 90
        1
176
     1
 40
0.0
176
     1
 90
        0
176
     1
290
     0
176
     1
290
     1
176
     1
290
     1
176
     1
290
     0
176
     1
290
     0
176
     1
290
     0
176
     1
290
     0
176
     1
290
     0
176
     1
290
     0
176
     1
 90
       50
176
     1
 40
0.0
176
     1
 40
1.0
176
     1
 90
        0
176
     1
 62
    18
420
        0
176
     1
 90
       50
176
     1
 90
        3
176
     1
 62
     5
420
      255
176
     1
290
     0
176
     1
 90
       50
176
     1
 90
       50
176
     1
 90
       50
176
     1
290
     0
176
     1
 90
       50
176
     1
 62
   256
176
     0
 40
1.0
176
     0
 90
        2
176
     1
  1
strokes_ogs.tif
176
     1
290
     0
176
     1
 40
1.0
176
     1
 40
1.0
176
     1
1001
ACAD
1000
AcDbSavedByObjectVersion
1070
     0
  0
VISUALSTYLE
  5
35
102
{ACAD_REACTORS
330
29
102
}
330
29
100
AcDbVisualStyle
  2
Brighten
 70
    12
177
     3
291
     1
 70
    58
 90
        2
176
     1
 90
        2
176
     1
 90
        0
176
     1
 90
        0
176
     1
 40
0.6
176
     1
 40
30.0
176
     1
 62
     7
420
 16777215
176
     1
 90
        1
176
     1
 90
        4
176
     1
 62
     7
176
     1
 62
   257
176
     1
 90
        1
176
     1
 90
        1
176
     1
 40
1.0
176
     1
 90
        8
176
     1
 62
     7
176
     1
 40
1.0
176
     1
 90
        1
176
     1
 90
        6
176
     1
 90
        2
176
     1
 62
     7
176
     1
 90
        5
176
     1
 90
        0
176
     1
 90
        0
176
     1
290
     0
176
     1
 90
        1
176
     1
 40
50.0
176
     1
 90
        0
176
     1
290
     0
176
     1
290
     1
176
     1
290
     1
176
     1
290
     0
176
     1
290
     0
176
     1
290
     0
176
     1
290
     0
176
     1
290
     0
176
     1
290
     0
176
     1
 90
       50
176
     1
 40
0.0
176
     1
 40
1.0
176
     1
 90
        0
176
     1
 62
    18
420
        0
176
     1
 90
       50
176
     1
 90
        3
176
     1
 62
     5
420
      255
176
     1
290
     0
176
     1
 90
       50
176
     1
 90
       50
176
     1
 90
       50
176
     1
290
     0
176
     1
 90
       50
176
     1
 62
   256
176
     0
 40
1.0
176
     0
 90
        2
176
     1
  1
strokes_ogs.tif
176
     1
290
     0
176
     1
 40
1.0
176
     1
 40
1.0
176
     1
1001
ACAD
1000
AcDbSavedByObjectVersion
1070
     0
  0
VISUALSTYLE
  5
39
102
{ACAD_REACTORS
330
29
102
}
330
29
100
AcDbVisualStyle
  2
ColorChange
 70
    16
177
     3
291
     1
 70
    58
 90
        2
176
     1
 90
        2
176
     1
 90
        3
176
     1
 90
        0
176
     1
 40
0.6
176
     1
 40
30.0
176
     1
 62
     8
420
  8421504
176
     1
 90
        1
176
     1
 90
        4
176
     1
 62
     7
176
     1
 62
   257
176
     1
 90
        1
176
     1
 90
        1
176
     1
 40
1.0
176
     1
 90
        8
176
     1
 62
     8
420
  8421504
176
     1
 40
1.0
176
     1
 90
        1
176
     1
 90
        6
176
     1
 90
        2
176
     1
 62
     7
176
     1
 90
        5
176
     1
 90
        0
176
     1
 90
        0
176
     1
290
     0
176
     1
 90
        1
176
     1
 40
0.0
176
     1
 90
        0
176
     1
290
     0
176
     1
290
     1
176
     1
290
     1
176
     1
290
     0
176
     1
290
     0
176
     1
290
     0
176
     1
290
     0
176
     1
290
     0
176
     1
290
     0
176
     1
 90
       50
176
     1
 40
0.0
176
     1
 40
1.0
176
     1
 90
        0
176
     1
 62
    18
420
        0
176
     1
 90
       50
176
     1
 90
        3
176
     1
 62
     5
420
      255
176
     1
290
     0
176
     1
 90
       50
176
     1
 90
       50
176
     1
 90
       50
176
     1
290
     0
176
     1
 90
       50
176
     1
 62
   256
176
     0
 40
1.0
176
     0
 90
        2
176
     1
  1
strokes_ogs.tif
176
     1
290
     0
176
     1
 40
1.0
176
     1
 40
1.0
176
     1
1001
ACAD
1000
AcDbSavedByObjectVersion
1070
     0
  0
VISUALSTYLE
  5
32
102
{ACAD_REACTORS
330
29
102
}
330
29
100
AcDbVisualStyle
  2
Conceptual
 70
     9
177
     3
291
     0
 70
    58
 90
        3
176
     1
 90
        2
176
     1
 90
        0
176
     1
 90
        0
176
     1
 40
0.6
176
     1
 40
30.0
176
     1
 62
     7
420
 16777215
176
     1
 90
        2
176
     1
 90
        2
176
     1
 62
     7
176
     1
 62
   257
176
     1
 90
        1
176
     1
 90
        1
176
     1
 40
40.0
176
     1
 90
        8
176
     1
 62
     7
176
     1
 40
1.0
176
     1
 90
        1
176
     1
 90
        6
176
     1
 90
        2
176
     1
 62
     7
176
     1
 90
        3
176
     1
 90
        0
176
     1
 90
        0
176
     1
290
     0
176
     1
 90
        1
176
     1
 40
0.0
176
     1
 90
        0
176
     1
290
     0
176
     1
290
     1
176
     1
290
     1
176
     1
290
     0
176
     1
290
     0
176
     1
290
     0
176
     1
290
     0
176
     1
290
     0
176
     1
290
     0
176
     1
 90
       50
176
     1
 40
0.0
176
     1
 40
1.0
176
     1
 90
        0
176
     1
 62
    18
420
        0
176
     1
 90
       50
176
     1
 90
        3
176
     1
 62
     5
420
      255
176
     1
290
     0
176
     1
 90
       50
176
     1
 90
       50
176
     1
 90
       50
176
     1
290
     0
176
     1
 90
       50
176
     1
 62
   256
176
     0
 40
1.0
176
     0
 90
        2
176
     1
  1
strokes_ogs.tif
176
     1
290
     0
176
     1
 40
1.0
176
     1
 40
1.0
176
     1
1001
ACAD
1000
AcDbSavedByObjectVersion
1070
     0
  0
VISUALSTYLE
  5
34
102
{ACAD_REACTORS
330
29
102
}
330
29
100
AcDbVisualStyle
  2
Dim
 70
    11
177
     3
291
     1
 70
    58
 90
        2
176
     1
 90
        2
176
     1
 90
        0
176
     1
 90
        0
176
     1
 40
0.6
176
     1
 40
30.0
176
     1
 62
     7
420
 16777215
176
     1
 90
        1
176
     1
 90
        4
176
     1
 62
     7
176
     1
 62
   257
176
     1
 90
        1
176
     1
 90
        1
176
     1
 40
1.0
176
     1
 90
        8
176
     1
 62
     7
176
     1
 40
1.0
176
     1
 90
        1
176
     1
 90
        6
176
     1
 90
        2
176
     1
 62
     7
176
     1
 90
        5
176
     1
 90
        0
176
     1
 90
        0
176
     1
290
     0
176
     1
 90
        1
176
     1
 40
-50.0
176
     1
 90
        0
176
     1
290
     0
176
     1
290
     1
176
     1
290
     1
176
     1
290
     0
176
     1
290
     0
176
     1
290
     0
176
     1
290
     0
176
     1
290
     0
176
     1
290
     0
176
     1
 90
       50
176
     1
 40
0.0
176
     1
 40
1.0
176
     1
 90
        0
176
     1
 62
    18
420
        0
176
     1
 90
       50
176
     1
 90
        3
176
     1
 62
     5
420
      255
176
     1
290
     0
176
     1
 90
       50
176
     1
 90
       50
176
     1
 90
       50
176
     1
290
     0
176
     1
 90
       50
176
     1
 62
   256
176
     0
 40
1.0
176
     0
 90
        2
176
     1
  1
strokes_ogs.tif
176
     1
290
     0
176
     1
 40
1.0
176
     1
 40
1.0
176
     1
1001
ACAD
1000
AcDbSavedByObjectVersion
1070
     0
  0
VISUALSTYLE
  5
11AB
102
{ACAD_REACTORS
330
29
102
}
330
29
100
AcDbVisualStyle
  2
EdgeColorOff
 70
    22
177
     3
291
     1
 70
    58
 90
        2
176
     0
 90
        2
176
     0
 90
        0
176
     0
 90
        0
176
     0
 40
0.6
176
     0
 40
30.0
176
     0
 62
     7
420
 16777215
176
     0
 90
        1
176
     0
 90
        4
176
     0
 62
     7
176
     0
 62
   257
176
     0
 90
        1
176
     0
 90
        1
176
     0
 40
1.0
176
     0
 90
        8
176
     2
 62
     7
176
     0
 40
1.0
176
     0
 90
        1
176
     0
 90
        6
176
     0
 90
        2
176
     0
 62
     7
176
     0
 90
        5
176
     0
 90
        0
176
     0
 90
        0
176
     0
290
     0
176
     0
 90
        1
176
     0
 40
0.0
176
     0
 90
        0
176
     0
290
     0
176
     0
290
     1
176
     0
290
     1
176
     0
290
     0
176
     0
290
     0
176
     0
290
     0
176
     0
290
     0
176
     0
290
     0
176
     0
290
     0
176
     0
 90
       50
176
     0
 40
0.0
176
     0
 40
1.0
176
     0
 90
        0
176
     0
 62
    18
420
        0
176
     0
 90
       50
176
     0
 90
        3
176
     0
 62
     5
420
      255
176
     0
290
     0
176
     0
 90
       50
176
     0
 90
       50
176
     0
 90
       50
176
     0
290
     0
176
     0
 90
       50
176
     0
 62
   256
176
     0
 40
1.0
176
     0
 90
        2
176
     0
  1
strokes_ogs.tif
176
     0
290
     0
176
     0
 40
1.0
176
     0
 40
1.0
176
     0
  0
VISUALSTYLE
  5
38
102
{ACAD_REACTORS
330
29
102
}
330
29
100
AcDbVisualStyle
  2
Facepattern
 70
    15
177
     3
291
     1
 70
    58
 90
        2
176
     1
 90
        2
176
     1
 90
        0
176
     1
 90
        0
176
     1
 40
0.6
176
     1
 40
30.0
176
     1
 62
     7
420
 16777215
176
     1
 90
        1
176
     1
 90
        4
176
     1
 62
     7
176
     1
 62
   257
176
     1
 90
        1
176
     1
 90
        1
176
     1
 40
1.0
176
     1
 90
        8
176
     1
 62
     7
176
     1
 40
1.0
176
     1
 90
        1
176
     1
 90
        6
176
     1
 90
        2
176
     1
 62
     7
176
     1
 90
        5
176
     1
 90
        0
176
     1
 90
        0
176
     1
290
     0
176
     1
 90
        1
176
     1
 40
0.0
176
     1
 90
        0
176
     1
290
     0
176
     1
290
     1
176
     1
290
     1
176
     1
290
     0
176
     1
290
     0
176
     1
290
     0
176
     1
290
     0
176
     1
290
     0
176
     1
290
     0
176
     1
 90
       50
176
     1
 40
0.0
176
     1
 40
1.0
176
     1
 90
        0
176
     1
 62
    18
420
        0
176
     1
 90
       50
176
     1
 90
        3
176
     1
 62
     5
420
      255
176
     1
290
     0
176
     1
 90
       50
176
     1
 90
       50
176
     1
 90
       50
176
     1
290
     0
176
     1
 90
       50
176
     1
 62
   256
176
     0
 40
1.0
176
     0
 90
        2
176
     1
  1
strokes_ogs.tif
176
     1
290
     0
176
     1
 40
1.0
176
     1
 40
1.0
176
     1
1001
ACAD
1000
AcDbSavedByObjectVersion
1070
     0
  0
VISUALSTYLE
  5
2A
102
{ACAD_REACTORS
330
29
102
}
330
29
100
AcDbVisualStyle
  2
Flat
 70
     0
177
     3
291
     1
 70
    58
 90
        2
176
     1
 90
        1
176
     1
 90
        1
176
     1
 90
        2
176
     1
 40
0.6
176
     1
 40
30.0
176
     1
 62
     7
420
 16777215
176
     1
 90
        0
176
     1
 90
        4
176
     1
 62
     7
176
     1
 62
   257
176
     1
 90
        1
176
     1
 90
        1
176
     1
 40
1.0
176
     1
 90
        8
176
     1
 62
     7
176
     1
 40
1.0
176
     1
 90
        1
176
     1
 90
        6
176
     1
 90
        2
176
     1
 62
     7
176
     1
 90
        5
176
     1
 90
        0
176
     1
 90
        0
176
     1
290
     0
176
     1
 90
       13
176
     1
 40
0.0
176
     1
 90
        0
176
     1
290
     0
176
     1
290
     1
176
     1
290
     1
176
     1
290
     0
176
     1
290
     0
176
     1
290
     0
176
     1
290
     0
176
     1
290
     0
176
     1
290
     0
176
     1
 90
       50
176
     1
 40
0.0
176
     1
 40
1.0
176
     1
 90
        0
176
     1
 62
    18
420
        0
176
     1
 90
       50
176
     1
 90
        3
176
     1
 62
     5
420
      255
176
     1
290
     0
176
     1
 90
       50
176
     1
 90
       50
176
     1
 90
       50
176
     1
290
     0
176
     1
 90
       50
176
     1
 62
   256
176
     0
 40
1.0
176
     0
 90
        2
176
     1
  1
strokes_ogs.tif
176
     1
290
     0
176
     1
 40
1.0
176
     1
 40
1.0
176
     1
1001
ACAD
1000
AcDbSavedByObjectVersion
1070
     0
  0
VISUALSTYLE
  5
2B
102
{ACAD_REACTORS
330
29
102
}
330
29
100
AcDbVisualStyle
  2
FlatWithEdges
 70
     1
177
     3
291
     1
 70
    58
 90
        2
176
     1
 90
        1
176
     1
 90
        1
176
     1
 90
        2
176
     1
 40
0.6
176
     1
 40
30.0
176
     1
 62
     7
420
 16777215
176
     1
 90
        1
176
     1
 90
        4
176
     1
 62
     7
176
     1
 62
   257
176
     1
 90
        1
176
     1
 90
        1
176
     1
 40
1.0
176
     1
 90
        0
176
     1
 62
   257
176
     1
 40
1.0
176
     1
 90
        1
176
     1
 90
        6
176
     1
 90
        2
176
     1
 62
     7
176
     1
 90
        5
176
     1
 90
        0
176
     1
 90
        0
176
     1
290
     0
176
     1
 90
       13
176
     1
 40
0.0
176
     1
 90
        0
176
     1
290
     0
176
     1
290
     1
176
     1
290
     1
176
     1
290
     0
176
     1
290
     0
176
     1
290
     0
176
     1
290
     0
176
     1
290
     0
176
     1
290
     0
176
     1
 90
       50
176
     1
 40
0.0
176
     1
 40
1.0
176
     1
 90
        0
176
     1
 62
    18
420
        0
176
     1
 90
       50
176
     1
 90
        3
176
     1
 62
     5
420
      255
176
     1
290
     0
176
     1
 90
       50
176
     1
 90
       50
176
     1
 90
       50
176
     1
290
     0
176
     1
 90
       50
176
     1
 62
   256
176
     0
 40
1.0
176
     0
 90
        2
176
     1
  1
strokes_ogs.tif
176
     1
290
     0
176
     1
 40
1.0
176
     1
 40
1.0
176
     1
1001
ACAD
1000
AcDbSavedByObjectVersion
1070
     0
  0
VISUALSTYLE
  5
2C
102
{ACAD_REACTORS
330
29
102
}
330
29
100
AcDbVisualStyle
  2
Gouraud
 70
     2
177
     3
291
     1
 70
    58
 90
        2
176
     1
 90
        2
176
     1
 90
        1
176
     1
 90
        2
176
     1
 40
0.6
176
     1
 40
30.0
176
     1
 62
     7
420
 16777215
176
     1
 90
        0
176
     1
 90
        4
176
     1
 62
     7
176
     1
 62
   257
176
     1
 90
        1
176
     1
 90
        1
176
     1
 40
1.0
176
     1
 90
        0
176
     1
 62
     7
176
     1
 40
1.0
176
     1
 90
        1
176
     1
 90
        6
176
     1
 90
        2
176
     1
 62
     7
176
     1
 90
        5
176
     1
 90
        0
176
     1
 90
        0
176
     1
290
     0
176
     1
 90
       13
176
     1
 40
0.0
176
     1
 90
        0
176
     1
290
     0
176
     1
290
     1
176
     1
290
     1
176
     1
290
     0
176
     1
290
     0
176
     1
290
     0
176
     1
290
     0
176
     1
290
     0
176
     1
290
     0
176
     1
 90
       50
176
     1
 40
0.0
176
     1
 40
1.0
176
     1
 90
        0
176
     1
 62
    18
420
        0
176
     1
 90
       50
176
     1
 90
        3
176
     1
 62
     5
420
      255
176
     1
290
     0
176
     1
 90
       50
176
     1
 90
       50
176
     1
 90
       50
176
     1
290
     0
176
     1
 90
       50
176
     1
 62
   256
176
     0
 40
1.0
176
     0
 90
        2
176
     1
  1
strokes_ogs.tif
176
     1
290
     0
176
     1
 40
1.0
176
     1
 40
1.0
176
     1
1001
ACAD
1000
AcDbSavedByObjectVersion
1070
     0
  0
VISUALSTYLE
  5
2D
102
{ACAD_REACTORS
330
29
102
}
330
29
100
AcDbVisualStyle
  2
GouraudWithEdges
 70
     3
177
     3
291
     1
 70
    58
 90
        2
176
     1
 90
        2
176
     1
 90
        1
176
     1
 90
        2
176
     1
 40
0.6
176
     1
 40
30.0
176
     1
 62
     7
420
 16777215
176
     1
 90
        1
176
     1
 90
        4
176
     1
 62
     7
176
     1
 62
   257
176
     1
 90
        1
176
     1
 90
        1
176
     1
 40
1.0
176
     1
 90
        0
176
     1
 62
   257
176
     1
 40
1.0
176
     1
 90
        1
176
     1
 90
        6
176
     1
 90
        2
176
     1
 62
     7
176
     1
 90
        5
176
     1
 90
        0
176
     1
 90
        0
176
     1
290
     0
176
     1
 90
       13
176
     1
 40
0.0
176
     1
 90
        0
176
     1
290
     0
176
     1
290
     1
176
     1
290
     1
176
     1
290
     0
176
     1
290
     0
176
     1
290
     0
176
     1
290
     0
176
     1
290
     0
176
     1
290
     0
176
     1
 90
       50
176
     1
 40
0.0
176
     1
 40
1.0
176
     1
 90
        0
176
     1
 62
    18
420
        0
176
     1
 90
       50
176
     1
 90
        3
176
     1
 62
     5
420
      255
176
     1
290
     0
176
     1
 90
       50
176
     1
 90
       50
176
     1
 90
       50
176
     1
290
     0
176
     1
 90
       50
176
     1
 62
   256
176
     0
 40
1.0
176
     0
 90
        2
176
     1
  1
strokes_ogs.tif
176
     1
290
     0
176
     1
 40
1.0
176
     1
 40
1.0
176
     1
1001
ACAD
1000
AcDbSavedByObjectVersion
1070
     0
  0
VISUALSTYLE
  5
11A3
102
{ACAD_REACTORS
330
29
102
}
330
29
100
AcDbVisualStyle
  2
Hidden
 70
     6
177
     3
291
     0
 70
    58
 90
        1
176
     1
 90
        2
176
     1
 90
        2
176
     1
 90
        0
176
     1
 40
0.6
176
     1
 40
30.0
176
     1
 62
     7
420
 16777215
176
     1
 90
        2
176
     1
 90
        2
176
     1
 62
     7
176
     1
 62
   257
176
     1
 90
        2
176
     1
 90
        1
176
     1
 40
40.0
176
     1
 90
        0
176
     1
 62
   257
176
     1
 40
1.0
176
     1
 90
        1
176
     1
 90
        6
176
     1
 90
        2
176
     1
 62
     7
176
     1
 90
        3
176
     1
 90
        0
176
     1
 90
        0
176
     1
290
     0
176
     1
 90
        1
176
     1
 40
0.0
176
     1
 90
        0
176
     1
290
     0
176
     1
290
     1
176
     1
290
     1
176
     1
290
     0
176
     1
290
     0
176
     1
290
     0
176
     1
290
     0
176
     1
290
     0
176
     1
290
     0
176
     1
 90
       50
176
     1
 40
0.0
176
     1
 40
1.0
176
     1
 90
        0
176
     1
 62
    18
420
        0
176
     1
 90
       50
176
     1
 90
        3
176
     1
 62
     5
420
      255
176
     1
290
     0
176
     1
 90
       50
176
     1
 90
       50
176
     1
 90
       50
176
     1
290
     0
176
     1
 90
       50
176
     1
 62
   256
176
     0
 40
1.0
176
     0
 90
        2
176
     1
  1
strokes_ogs.tif
176
     1
290
     0
176
     1
 40
1.0
176
     1
 40
1.0
176
     1
  0
VISUALSTYLE
  5
11A9
102
{ACAD_REACTORS
330
29
102
}
330
29
100
AcDbVisualStyle
  2
JitterOff
 70
    20
177
     3
291
     1
 70
    58
 90
        2
176
     0
 90
        2
176
     0
 90
        0
176
     0
 90
        0
176
     0
 40
0.6
176
     0
 40
30.0
176
     0
 62
     7
420
 16777215
176
     0
 90
        1
176
     0
 90
        4
176
     0
 62
     7
176
     0
 62
   257
176
     0
 90
        1
176
     0
 90
        1
176
     0
 40
1.0
176
     0
 90
       10
176
     2
 62
     7
176
     0
 40
1.0
176
     0
 90
        1
176
     0
 90
        6
176
     0
 90
        2
176
     0
 62
     7
176
     0
 90
        5
176
     0
 90
        0
176
     0
 90
        0
176
     0
290
     0
176
     0
 90
        1
176
     0
 40
0.0
176
     0
 90
        0
176
     0
290
     0
176
     0
290
     1
176
     0
290
     1
176
     0
290
     0
176
     0
290
     0
176
     0
290
     0
176
     0
290
     0
176
     0
290
     0
176
     0
290
     0
176
     0
 90
       50
176
     0
 40
0.0
176
     0
 40
1.0
176
     0
 90
        0
176
     0
 62
    18
420
        0
176
     0
 90
       50
176
     0
 90
        3
176
     0
 62
     5
420
      255
176
     0
290
     0
176
     0
 90
       50
176
     0
 90
       50
176
     0
 90
       50
176
     0
290
     0
176
     0
 90
       50
176
     0
 62
   256
176
     0
 40
1.0
176
     0
 90
        2
176
     0
  1
strokes_ogs.tif
176
     0
290
     0
176
     0
 40
1.0
176
     0
 40
1.0
176
     0
  0
VISUALSTYLE
  5
37
102
{ACAD_REACTORS
330
29
102
}
330
29
100
AcDbVisualStyle
  2
Linepattern
 70
    14
177
     3
291
     1
 70
    58
 90
        2
176
     1
 90
        2
176
     1
 90
        0
176
     1
 90
        0
176
     1
 40
0.6
176
     1
 40
30.0
176
     1
 62
     7
420
 16777215
176
     1
 90
        1
176
     1
 90
        4
176
     1
 62
     7
176
     1
 62
   257
176
     1
 90
        7
176
     1
 90
        7
176
     1
 40
1.0
176
     1
 90
        8
176
     1
 62
     7
176
     1
 40
1.0
176
     1
 90
        1
176
     1
 90
        6
176
     1
 90
        2
176
     1
 62
     7
176
     1
 90
        5
176
     1
 90
        0
176
     1
 90
        0
176
     1
290
     0
176
     1
 90
        1
176
     1
 40
0.0
176
     1
 90
        0
176
     1
290
     0
176
     1
290
     1
176
     1
290
     1
176
     1
290
     0
176
     1
290
     0
176
     1
290
     0
176
     1
290
     0
176
     1
290
     0
176
     1
290
     0
176
     1
 90
       50
176
     1
 40
0.0
176
     1
 40
1.0
176
     1
 90
        0
176
     1
 62
    18
420
        0
176
     1
 90
       50
176
     1
 90
        3
176
     1
 62
     5
420
      255
176
     1
290
     0
176
     1
 90
       50
176
     1
 90
       50
176
     1
 90
       50
176
     1
290
     0
176
     1
 90
       50
176
     1
 62
   256
176
     0
 40
1.0
176
     0
 90
        2
176
     1
  1
strokes_ogs.tif
176
     1
290
     0
176
     1
 40
1.0
176
     1
 40
1.0
176
     1
1001
ACAD
1000
AcDbSavedByObjectVersion
1070
     0
  0
VISUALSTYLE
  5
11AA
102
{ACAD_REACTORS
330
29
102
}
330
29
100
AcDbVisualStyle
  2
OverhangOff
 70
    21
177
     3
291
     1
 70
    58
 90
        2
176
     0
 90
        2
176
     0
 90
        0
176
     0
 90
        0
176
     0
 40
0.6
176
     0
 40
30.0
176
     0
 62
     7
420
 16777215
176
     0
 90
        1
176
     0
 90
        4
176
     0
 62
     7
176
     0
 62
   257
176
     0
 90
        1
176
     0
 90
        1
176
     0
 40
1.0
176
     0
 90
        9
176
     2
 62
     7
176
     0
 40
1.0
176
     0
 90
        1
176
     0
 90
        6
176
     0
 90
        2
176
     0
 62
     7
176
     0
 90
        5
176
     0
 90
        0
176
     0
 90
        0
176
     0
290
     0
176
     0
 90
        1
176
     0
 40
0.0
176
     0
 90
        0
176
     0
290
     0
176
     0
290
     1
176
     0
290
     1
176
     0
290
     0
176
     0
290
     0
176
     0
290
     0
176
     0
290
     0
176
     0
290
     0
176
     0
290
     0
176
     0
 90
       50
176
     0
 40
0.0
176
     0
 40
1.0
176
     0
 90
        0
176
     0
 62
    18
420
        0
176
     0
 90
       50
176
     0
 90
        3
176
     0
 62
     5
420
      255
176
     0
290
     0
176
     0
 90
       50
176
     0
 90
       50
176
     0
 90
       50
176
     0
290
     0
176
     0
 90
       50
176
     0
 62
   256
176
     0
 40
1.0
176
     0
 90
        2
176
     0
  1
strokes_ogs.tif
176
     0
290
     0
176
     0
 40
1.0
176
     0
 40
1.0
176
     0
  0
VISUALSTYLE
  5
33
102
{ACAD_REACTORS
330
29
102
}
330
29
100
AcDbVisualStyle
  2
Realistic
 70
     8
177
     3
291
     0
 70
    58
 90
        2
176
     1
 90
        2
176
     1
 90
        0
176
     1
 90
        0
176
     1
 40
0.6
176
     1
 40
30.0
176
     1
 62
     7
420
 16777215
176
     1
 90
        1
176
     1
 90
        0
176
     1
 62
     7
176
     1
 62
   257
176
     1
 90
        1
176
     1
 90
        1
176
     1
 40
1.0
176
     1
 90
        8
176
     1
 62
     8
420
  7895160
176
     1
 40
1.0
176
     1
 90
        1
176
     1
 90
        6
176
     1
 90
        2
176
     1
 62
     7
176
     1
 90
        5
176
     1
 90
        0
176
     1
 90
        0
176
     1
290
     0
176
     1
 90
       13
176
     1
 40
0.0
176
     1
 90
        0
176
     1
290
     0
176
     1
290
     1
176
     1
290
     1
176
     1
290
     0
176
     1
290
     0
176
     1
290
     0
176
     1
290
     0
176
     1
290
     0
176
     1
290
     0
176
     1
 90
       50
176
     1
 40
0.0
176
     1
 40
1.0
176
     1
 90
        0
176
     1
 62
    18
420
        0
176
     1
 90
       50
176
     1
 90
        3
176
     1
 62
     5
420
      255
176
     1
290
     0
176
     1
 90
       50
176
     1
 90
       50
176
     1
 90
       50
176
     1
290
     0
176
     1
 90
       50
176
     1
 62
   256
176
     0
 40
1.0
176
     0
 90
        2
176
     1
  1
strokes_ogs.tif
176
     1
290
     0
176
     1
 40
1.0
176
     1
 40
1.0
176
     1
1001
ACAD
1000
AcDbSavedByObjectVersion
1070
     0
  0
VISUALSTYLE
  5
11A8
102
{ACAD_REACTORS
330
29
102
}
330
29
100
AcDbVisualStyle
  2
Shaded
 70
    27
177
     3
291
     0
 70
    58
 90
        2
176
     1
 90
        2
176
     1
 90
        1
176
     1
 90
        2
176
     1
 40
0.6
176
     1
 40
30.0
176
     1
 62
     7
420
 16777215
176
     1
 90
        0
176
     1
 90
        4
176
     1
 62
     7
176
     1
 62
   257
176
     1
 90
        1
176
     1
 90
        1
176
     1
 40
1.0
176
     1
 90
        8
176
     1
 62
   257
176
     1
 40
1.0
176
     1
 90
        1
176
     1
 90
        6
176
     1
 90
        2
176
     1
 62
     8
420
  7895160
176
     1
 90
        3
176
     1
 90
        0
176
     1
 90
        0
176
     1
290
     0
176
     1
 90
        5
176
     1
 40
0.0
176
     1
 90
        0
176
     1
290
     0
176
     1
290
     1
176
     1
290
     1
176
     1
290
     0
176
     1
290
     0
176
     1
290
     0
176
     1
290
     0
176
     1
290
     0
176
     1
290
     0
176
     1
 90
       50
176
     1
 40
0.0
176
     1
 40
1.0
176
     1
 90
        0
176
     1
 62
    18
420
        0
176
     1
 90
       50
176
     1
 90
        3
176
     1
 62
     5
420
      255
176
     1
290
     0
176
     1
 90
       50
176
     1
 90
       50
176
     1
 90
       50
176
     1
290
     0
176
     1
 90
       50
176
     1
 62
   256
176
     0
 40
1.0
176
     0
 90
        2
176
     1
  1
strokes_ogs.tif
176
     1
290
     0
176
     1
 40
1.0
176
     1
 40
1.0
176
     1
  0
VISUALSTYLE
  5
11A7
102
{ACAD_REACTORS
330
29
102
}
330
29
100
AcDbVisualStyle
  2
Shaded with edges
 70
    26
177
     3
291
     0
 70
    58
 90
        2
176
     1
 90
        2
176
     1
 90
        1
176
     1
 90
        2
176
     1
 40
0.6
176
     1
 40
30.0
176
     1
 62
     7
420
 16777215
176
     1
 90
        1
176
     1
 90
       10
176
     1
 62
     7
176
     1
 62
   257
176
     1
 90
        2
176
     1
 90
        1
176
     1
 40
1.0
176
     1
 90
        8
176
     1
 62
   257
176
     1
 40
1.0
176
     1
 90
        1
176
     1
 90
        6
176
     1
 90
        2
176
     1
 62
     7
176
     1
 90
        3
176
     1
 90
        0
176
     1
 90
        0
176
     1
290
     0
176
     1
 90
        5
176
     1
 40
0.0
176
     1
 90
        0
176
     1
290
     0
176
     1
290
     1
176
     1
290
     1
176
     1
290
     0
176
     1
290
     0
176
     1
290
     0
176
     1
290
     0
176
     1
290
     0
176
     1
290
     0
176
     1
 90
       50
176
     1
 40
0.0
176
     1
 40
1.0
176
     1
 90
        0
176
     1
 62
    18
420
        0
176
     1
 90
       50
176
     1
 90
        3
176
     1
 62
     5
420
      255
176
     1
290
     0
176
     1
 90
       50
176
     1
 90
       50
176
     1
 90
       50
176
     1
290
     0
176
     1
 90
       50
176
     1
 62
   256
176
     0
 40
1.0
176
     0
 90
        2
176
     1
  1
strokes_ogs.tif
176
     1
290
     0
176
     1
 40
1.0
176
     1
 40
1.0
176
     1
  0
VISUALSTYLE
  5
11A4
102
{ACAD_REACTORS
330
29
102
}
330
29
100
AcDbVisualStyle
  2
Shades of Gray
 70
    23
177
     3
291
     0
 70
    58
 90
        2
176
     1
 90
        2
176
     1
 90
        3
176
     1
 90
        0
176
     1
 40
0.6
176
     1
 40
30.0
176
     1
 62
     7
420
 16777215
176
     1
 90
        2
176
     1
 90
        2
176
     1
 62
     7
176
     1
 62
     7
176
     1
 90
        1
176
     1
 90
        1
176
     1
 40
40.0
176
     1
 90
        8
176
     1
 62
     7
176
     1
 40
1.0
176
     1
 90
        1
176
     1
 90
        6
176
     1
 90
        2
176
     1
 62
     7
176
     1
 90
        3
176
     1
 90
        0
176
     1
 90
        0
176
     1
290
     0
176
     1
 90
        1
176
     1
 40
0.0
176
     1
 90
        0
176
     1
290
     0
176
     1
290
     1
176
     1
290
     1
176
     1
290
     0
176
     1
290
     0
176
     1
290
     0
176
     1
290
     0
176
     1
290
     0
176
     1
290
     0
176
     1
 90
       50
176
     1
 40
0.0
176
     1
 40
1.0
176
     1
 90
        0
176
     1
 62
    18
420
        0
176
     1
 90
       50
176
     1
 90
        3
176
     1
 62
     5
420
      255
176
     1
290
     0
176
     1
 90
       50
176
     1
 90
       50
176
     1
 90
       50
176
     1
290
     0
176
     1
 90
       50
176
     1
 62
   256
176
     0
 40
1.0
176
     0
 90
        2
176
     1
  1
strokes_ogs.tif
176
     1
290
     0
176
     1
 40
1.0
176
     1
 40
1.0
176
     1
  0
VISUALSTYLE
  5
11A5
102
{ACAD_REACTORS
330
29
102
}
330
29
100
AcDbVisualStyle
  2
Sketchy
 70
    24
177
     3
291
     0
 70
    58
 90
        1
176
     1
 90
        2
176
     1
 90
        2
176
     1
 90
        0
176
     1
 40
0.6
176
     1
 40
30.0
176
     1
 62
     7
420
 16777215
176
     1
 90
        2
176
     1
 90
        2
176
     1
 62
     7
176
     1
 62
     7
176
     1
 90
        1
176
     1
 90
        1
176
     1
 40
40.0
176
     1
 90
       11
176
     1
 62
     7
176
     1
 40
1.0
176
     1
 90
        1
176
     1
 90
        6
176
     1
 90
        2
176
     1
 62
     7
176
     1
 90
        6
176
     1
 90
        0
176
     1
 90
        0
176
     1
290
     0
176
     1
 90
        1
176
     1
 40
0.0
176
     1
 90
        0
176
     1
290
     0
176
     1
290
     1
176
     1
290
     1
176
     1
290
     0
176
     1
290
     0
176
     1
290
     0
176
     1
290
     0
176
     1
290
     0
176
     1
290
     0
176
     1
 90
       50
176
     1
 40
0.0
176
     1
 40
1.0
176
     1
 90
        0
176
     1
 62
    18
420
        0
176
     1
 90
       50
176
     1
 90
        3
176
     1
 62
     5
420
      255
176
     1
290
     0
176
     1
 90
       50
176
     1
 90
       50
176
     1
 90
       50
176
     1
290
     0
176
     1
 90
       50
176
     1
 62
   256
176
     0
 40
1.0
176
     0
 90
        2
176
     1
  1
strokes_ogs.tif
176
     1
290
     0
176
     1
 40
1.0
176
     1
 40
1.0
176
     1
  0
VISUALSTYLE
  5
36
102
{ACAD_REACTORS
330
29
102
}
330
29
100
AcDbVisualStyle
  2
Thicken
 70
    13
177
     3
291
     1
 70
    58
 90
        2
176
     1
 90
        2
176
     1
 90
        0
176
     1
 90
        0
176
     1
 40
0.6
176
     1
 40
30.0
176
     1
 62
     7
420
 16777215
176
     1
 90
        1
176
     1
 90
        4
176
     1
 62
     7
176
     1
 62
   257
176
     1
 90
        1
176
     1
 90
        1
176
     1
 40
1.0
176
     1
 90
       12
176
     1
 62
     7
176
     1
 40
1.0
176
     1
 90
        1
176
     1
 90
        6
176
     1
 90
        2
176
     1
 62
     7
176
     1
 90
        5
176
     1
 90
        0
176
     1
 90
        0
176
     1
290
     0
176
     1
 90
        1
176
     1
 40
0.0
176
     1
 90
        0
176
     1
290
     0
176
     1
290
     1
176
     1
290
     1
176
     1
290
     0
176
     1
290
     0
176
     1
290
     0
176
     1
290
     0
176
     1
290
     0
176
     1
290
     0
176
     1
 90
       50
176
     1
 40
0.0
176
     1
 40
1.0
176
     1
 90
        0
176
     1
 62
    18
420
        0
176
     1
 90
       50
176
     1
 90
        3
176
     1
 62
     5
420
      255
176
     1
290
     0
176
     1
 90
       50
176
     1
 90
       50
176
     1
 90
       50
176
     1
290
     0
176
     1
 90
       50
176
     1
 62
   256
176
     0
 40
1.0
176
     0
 90
        2
176
     1
  1
strokes_ogs.tif
176
     1
290
     0
176
     1
 40
1.0
176
     1
 40
1.0
176
     1
1001
ACAD
1000
AcDbSavedByObjectVersion
1070
     0
  0
VISUALSTYLE
  5
11A2
102
{ACAD_REACTORS
330
29
102
}
330
29
100
AcDbVisualStyle
  2
Wireframe
 70
     5
177
     3
291
     0
 70
    58
 90
        0
176
     1
 90
        2
176
     1
 90
        0
176
     1
 90
        0
176
     1
 40
0.6
176
     1
 40
30.0
176
     1
 62
     7
420
 16777215
176
     1
 90
        1
176
     1
 90
        4
176
     1
 62
     7
176
     1
 62
   257
176
     1
 90
        1
176
     1
 90
        1
176
     1
 40
1.0
176
     1
 90
        0
176
     1
 62
   257
176
     1
 40
1.0
176
     1
 90
        1
176
     1
 90
        6
176
     1
 90
        2
176
     1
 62
     7
176
     1
 90
        3
176
     1
 90
        0
176
     1
 90
        0
176
     1
290
     0
176
     1
 90
        1
176
     1
 40
0.0
176
     1
 90
        0
176
     1
290
     0
176
     1
290
     1
176
     1
290
     1
176
     1
290
     0
176
     1
290
     0
176
     1
290
     0
176
     1
290
     0
176
     1
290
     0
176
     1
290
     0
176
     1
 90
       50
176
     1
 40
0.0
176
     1
 40
1.0
176
     1
 90
        0
176
     1
 62
    18
420
        0
176
     1
 90
       50
176
     1
 90
        3
176
     1
 62
     5
420
      255
176
     1
290
     0
176
     1
 90
       50
176
     1
 90
       50
176
     1
 90
       50
176
     1
290
     0
176
     1
 90
       50
176
     1
 62
   256
176
     0
 40
1.0
176
     0
 90
        2
176
     1
  1
strokes_ogs.tif
176
     1
290
     0
176
     1
 40
1.0
176
     1
 40
1.0
176
     1
  0
VISUALSTYLE
  5
11A6
102
{ACAD_REACTORS
330
29
102
}
330
29
100
AcDbVisualStyle
  2
X-Ray
 70
    25
177
     3
291
     0
 70
    58
 90
        2
176
     1
 90
        2
176
     1
 90
        1
176
     1
 90
        1
176
     1
 40
0.5
176
     1
 40
30.0
176
     1
 62
     7
420
 16777215
176
     1
 90
        1
176
     1
 90
        0
176
     1
 62
     7
176
     1
 62
   257
176
     1
 90
        1
176
     1
 90
        1
176
     1
 40
1.0
176
     1
 90
        8
176
     1
 62
     7
176
     1
 40
1.0
176
     1
 90
        1
176
     1
 90
        6
176
     1
 90
        2
176
     1
 62
     7
176
     1
 90
        3
176
     1
 90
        0
176
     1
 90
        0
176
     1
290
     0
176
     1
 90
       13
176
     1
 40
0.0
176
     1
 90
        0
176
     1
290
     0
176
     1
290
     1
176
     1
290
     1
176
     1
290
     0
176
     1
290
     0
176
     1
290
     0
176
     1
290
     0
176
     1
290
     0
176
     1
290
     0
176
     1
 90
       50
176
     1
 40
0.0
176
     1
 40
1.0
176
     1
 90
        0
176
     1
 62
    18
420
        0
176
     1
 90
       50
176
     1
 90
        3
176
     1
 62
     5
420
      255
176
     1
290
     0
176
     1
 90
       50
176
     1
 90
       50
176
     1
 90
       50
176
     1
290
     0
176
     1
 90
       50
176
     1
 62
   256
176
     0
 40
1.0
176
     0
 90
        2
176
     1
  1
strokes_ogs.tif
176
     1
290
     0
176
     1
 40
1.0
176
     1
 40
1.0
176
     1
  0
DICTIONARYVAR
  5
E92
102
{ACAD_REACTORS
330
E8F
102
}
330
E8F
100
DictionaryVariables
280
     0
  1
1:1
  0
DICTIONARYVAR
  5
E91
102
{ACAD_REACTORS
330
E8F
102
}
330
E8F
100
DictionaryVariables
280
     0
  1
STANDARD
  0
DICTIONARYVAR
  5
E90
102
{ACAD_REACTORS
330
E8F
102
}
330
E8F
100
DictionaryVariables
280
     0
  1
STANDARD
  0
DICTIONARYVAR
  5
1570
102
{ACAD_REACTORS
330
E8F
102
}
330
E8F
100
DictionaryVariables
280
     0
  1
Imperial24
  0
DICTIONARYVAR
  5
1571
102
{ACAD_REACTORS
330
E8F
102
}
330
E8F
100
DictionaryVariables
280
     0
  1
Imperial24
  0
DICTIONARYVAR
  5
1572
102
{ACAD_REACTORS
330
E8F
102
}
330
E8F
100
DictionaryVariables
280
     0
  1
1
  0
DICTIONARYVAR
  5
1573
102
{ACAD_REACTORS
330
E8F
102
}
330
E8F
100
DictionaryVariables
280
     0
  1
15
  0
DICTIONARYVAR
  5
11A0
102
{ACAD_REACTORS
330
E8F
102
}
330
E8F
100
DictionaryVariables
280
     0
  1
0
  0
DICTIONARYVAR
  5
119F
102
{ACAD_REACTORS
330
E8F
102
}
330
E8F
100
DictionaryVariables
280
     0
  1
0
  0
DICTIONARY
  5
117F
102
{ACAD_REACTORS
330
D28
102
}
330
D28
100
AcDbDictionary
281
     1
  0
DICTIONARY
  5
D35
102
{ACAD_REACTORS
330
D28
102
}
330
D28
100
AcDbDictionary
281
     1
  0
XRECORD
  5
D4A
102
{ACAD_REACTORS
330
D28
102
}
330
D28
100
AcDbXrecord
280
     1
 90
-1023410169
  0
DICTIONARY
  5
1577
330
11AF
100
AcDbDictionary
280
     1
281
     1
  3
ACAD_XREC_ROUNDTRIP
360
1578
  0
DICTIONARY
  5
1A
330
19
100
AcDbDictionary
280
     1
281
     1
  3
ACAD_XREC_ROUNDTRIP
360
E99
  3
BUMPTILE
360
1C
  3
DIFFUSETILE
360
1B
  3
OPACITYTILE
360
1F
  3
REFLECTIONTILE
360
1E
  3
REFRACTIONTILE
360
20
  3
SPECULARTILE
360
1D
  0
DICTIONARY
  5
12
330
11
100
AcDbDictionary
280
     1
281
     1
  3
ACAD_XREC_ROUNDTRIP
360
E98
  3
BUMPTILE
360
14
  3
DIFFUSETILE
360
13
  3
OPACITYTILE
360
17
  3
REFLECTIONTILE
360
16
  3
REFRACTIONTILE
360
18
  3
SPECULARTILE
360
15
  0
DICTIONARY
  5
22
330
21
100
AcDbDictionary
280
     1
281
     1
  3
ACAD_XREC_ROUNDTRIP
360
E9A
  3
BUMPTILE
360
24
  3
DIFFUSETILE
360
23
  3
FBXASSET
360
150E
  3
OPACITYTILE
360
27
  3
REFLECTIONTILE
360
26
  3
REFRACTIONTILE
360
28
  3
SPECULARTILE
360
25
  0
DICTIONARY
  5
1575
330
11AD
100
AcDbDictionary
280
     1
281
     1
  3
ACAD_XREC_ROUNDTRIP
360
1576
  0
DICTIONARY
  5
E93
330
6C
100
AcDbDictionary
280
     1
281
     1
  3
ACAD_ROUNDTRIP_2008_TABLESTYLE_CELLSTYLEMAP
360
1574
  0
XRECORD
  5
1578
102
{ACAD_REACTORS
330
1577
102
}
330
1577
100
AcDbXrecord
280
     1
102
DISPLAYNAME
  1
Imperial24
102
FLAGS
 90
        0
  0
XRECORD
  5
E99
102
{ACAD_REACTORS
330
1A
102
}
330
1A
100
AcDbXrecord
280
     1
102
MATERIAL
148
0.0
149
0.0
149
0.0
 93
        0
 94
      127
282
     0
 72
     0
 77
     0
171
     0
175
     0
179
     0
273
     0
  0
XRECORD
  5
1C
102
{ACAD_REACTORS
330
1A
102
}
330
1A
100
AcDbXrecord
280
     1
270
     1
271
     1
  0
XRECORD
  5
1B
102
{ACAD_REACTORS
330
1A
102
}
330
1A
100
AcDbXrecord
280
     1
270
     1
271
     1
  0
XRECORD
  5
1F
102
{ACAD_REACTORS
330
1A
102
}
330
1A
100
AcDbXrecord
280
     1
270
     1
271
     1
  0
XRECORD
  5
1E
102
{ACAD_REACTORS
330
1A
102
}
330
1A
100
AcDbXrecord
280
     1
270
     1
271
     1
  0
XRECORD
  5
20
102
{ACAD_REACTORS
330
1A
102
}
330
1A
100
AcDbXrecord
280
     1
270
     1
271
     1
  0
XRECORD
  5
1D
102
{ACAD_REACTORS
330
1A
102
}
330
1A
100
AcDbXrecord
280
     1
270
     1
271
     1
  0
XRECORD
  5
E98
102
{ACAD_REACTORS
330
12
102
}
330
12
100
AcDbXrecord
280
     1
102
MATERIAL
148
0.0
149
0.0
149
0.0
 93
        0
 94
      127
282
     0
 72
     0
 77
     0
171
     0
175
     0
179
     0
273
     0
  0
XRECORD
  5
14
102
{ACAD_REACTORS
330
12
102
}
330
12
100
AcDbXrecord
280
     1
270
     1
271
     1
  0
XRECORD
  5
13
102
{ACAD_REACTORS
330
12
102
}
330
12
100
AcDbXrecord
280
     1
270
     1
271
     1
  0
XRECORD
  5
17
102
{ACAD_REACTORS
330
12
102
}
330
12
100
AcDbXrecord
280
     1
270
     1
271
     1
  0
XRECORD
  5
16
102
{ACAD_REACTORS
330
12
102
}
330
12
100
AcDbXrecord
280
     1
270
     1
271
     1
  0
XRECORD
  5
18
102
{ACAD_REACTORS
330
12
102
}
330
12
100
AcDbXrecord
280
     1
270
     1
271
     1
  0
XRECORD
  5
15
102
{ACAD_REACTORS
330
12
102
}
330
12
100
AcDbXrecord
280
     1
270
     1
271
     1
  0
XRECORD
  5
E9A
102
{ACAD_REACTORS
330
22
102
}
330
22
100
AcDbXrecord
280
     1
102
MATERIAL
148
0.0
149
0.0
149
0.0
 93
        0
 94
      127
282
     0
 72
     0
 77
     0
171
     0
175
     0
179
     0
273
     0
  0
XRECORD
  5
24
102
{ACAD_REACTORS
330
22
102
}
330
22
100
AcDbXrecord
280
     1
270
     1
271
     1
  0
XRECORD
  5
23
102
{ACAD_REACTORS
330
22
102
}
330
22
100
AcDbXrecord
280
     1
270
     1
271
     1
  0
XRECORD
  5
150E
102
{ACAD_REACTORS
330
22
102
}
330
22
100
AcDbXrecord
280
     1
 70
     1
 90
652598616
 71
     1
  1
24F4D758-1DCE-4A0B-A76D-8E8A008CE620
311
504B0304140006080800B7512B4B3BDC273035010000A80100004F00000044383838443935362D343144362D344345322D383445422D3633364343423835393046452F4173736574446174612F446566696E6974696F6E4974657261746F7250726F706572746965732E62696E5D505D4BC330148D3E280A3E08FE80327C8D
311
E947DAA6B2296B92EAF063D03A7C94AC8B5BB16B47D3EAEB1EFDD79AB80AE28573EFE1DE9B730FF904007CF5A129D8D3D8EA7CA2EB8DAC6453E459BE926B010E4CA7ACE7A23CD72CF170C4139F434AE204621A321861E641E6FA9E13C6090E1D7F5FEF1D6A30F92ABAB235920F85CA65598A4AD69D3AD58DFE86B516ADBE25
311
CA0BF3E8080053B61AE077A08CD272E7C898FCD0108BCDE5B5504AB623C408212CF203881DA613E52E2498C730F0024A63E24776C2512A55DD35B954C8C50966A14FA0C32887786CC7701C060C124EC6B64D280F5C1BB5ABCE7CCD99B131AF4451221BF5165E36D572A0BA8D6CDE0B553783AB63AB8F613C4DD3E9F3FD84F2
311
C78C6716FA33A2B79CDE4D674FFF874334CB78BA5B1C1A6A4DD868F056378BD0F67EB4BF01504B0304140006080800B7512B4BE662CA7E27010000300200004500000044383838443935362D343144362D344345322D383445422D3633364343423835393046452F4173736574446174612F496E7374616E636550726F7065
311
72746965732E62696E6D51BB4EC34010DC40248404C8051F409122209D75773EBF2424BF1344993429682CDB2814A48890685DD2D1F12F3414E9E8E928E00F70430D7B17C706392BCD3E6667F624FB01007EEAC0167A8812F321D671B1289637D9349B17B7E900092E4622B64D87B0384A8808684802DB8A89933801A54E94
311
589CEEB54669319888136EBAC414C220C2E28C84A33026CC36686445911B242ECAD4BB707AF5B8FA1EBE795877902B119B59559C312A6FAD06D07CD014A5D2C06FFBAD1D1AD7D1345B654836826A17A712515B3FEB7A805437E4776C37CD918E307FF63BDC3FA26B95A7877F3495D7C749FEAD23C4F43EBDCBE6245CA68BBC
311
C8E546C6F5F8846930E15467700EFBD087AF17C949E8B8EFBD6F6E28799D5E3FCE60021C28E8C0903B864B550166174FB35F504B0304140006080800B7512B4B88E57597CD3F0000904100006B00000044383838443935362D343144362D344345322D383445422D3633364343423835393046452F5265736F75726365732F
311
32344634443735382D314443452D344130422D413736442D3845384130303843453632302F7468756D626E61696C2F302F67656E657269635F706E67355B773CD4FF1FBF73E71C0E67EF7576C9DEF3EC995D46C6A1EC5046649CBDF79E192942562825CE965D8A868C2842C8DE9FDFD1F7E7F138F7078FCF6B3F5FCFD7EBFD
311
FEC41B196891913091804020321D6D7513FC77D8C5070EC3FFEE51B21F068154CC75D455CC028A3EA68992803810109FDDE5D5CEC5521B28A1B422BF80741695D5B529DA1C2D058AD2388BDA9F476F7C2CADC939304173DBF48A452BF8A700C0C70C3D121C1AA15A5270C22E2B9E28763651F7DA0D12CE11077B2ECD0D560B
311
5E3DE2368B1E65C5E1C87384A4CC5F2D9FB8BE39E9B77C753783A37998F5CEF1B4FEE553463245C9712270880DF339E0B882A6BA713D865F6F384C842D440934EF264F4A304F8DE4EEFA1E2BF5E2D91F5ADD9613D6E31DDB33ED31DB1D7916CAF091286EA3D31B9CFECB78BB0060245B943C4C040119FF780A74DD308BA9D0
311
28678674EB5504ECF284EE814DAED07440BAF649BE4B55DA2890F4D73E2D489A59EE54FDB0A85B59F2F52C4858A02705C4815A792B0C4A996A2023ECB195073E115E3E3647F64243A8338F2000BCB58DA5692C7E7C3D413F963FEDF3CF00FBB0F831A9D51360FECA43819F527B89FA260EB63C5DA676830AA3626A3693B23F
311
1A17A0DFFCE3EE164E31B5365EDF0C89EF64D8E38AB0BA9A1117D7C3A0EC44F44F4023095E80BA610DE336D0F99593A88BFC5306E72DF98F7FD132ED95878DF2964EA7E43071359FD83B2BDF9C6B5BDF768F0F3C0FC351199526F53D9460A34511F75D1B63E488178569472C91A94497807A3FD4A390C6558F26D416365C36
311
56DE6E769DA9D8FC73774E1709812842DD8EF96AED1960F79D21B395CDDFE6F92CB4EB962A4668C76990E2EF29798C8941D67DA50F4A5F947872460F1F6FDB794E8A29FD7AC0C0D6E0714339CE258FB17AE8535221E3464A10F29A0BE5EEECEFC5675926A89F49EB14E5711894F6586DB5754EB4D5DA9C6437EBA57DB97A24
311
F8B8A8DB295FFD73266CF57E82694DF5166DDF93573AFE9C9C5EB05F8FEF8E89E0A8917B0B3724DB7BEBB53252581EFC3E38166BA131A3A5B42FE2AD00A769BBFA4458D2DE7822F8C4F63D0B8E21B285AE13325F3410A435C648C9D91FDEB109E73CEDA7BC796961AF79175E1A3CE4C5E8B0D009B0C9E29EFD98BC8E97554E
311
3D8D838424E270F7685226E5AC268E021EDE3522D583E8F20C0BDE2959EF5BBFEEDAB32FE9A3ED0E39F211A86AA9DEBFC68182EDED132AB8BB794442D2D7EA9F4D8BFF52BC4D55BB165124EE90A42D101E67BBBB292FFB4F66DE5BF2300E44546757DA7CEF8932BFC9F92A0707953491A55C5A5ACEDABD9FA1AEA01BAC3DC5
311
A24E22E7C47213493996EFBC369D086ED9397C9BA6C7F9855C7BD5E15BFC8C53DB3D2A4C5901A57ACD2FBDF4D1676E95338B2C2BCE65FDA4C64F5FEFDC7D9CA5AA1FCF11E193F2FDABF0F4916BF13FB916A224380E6462A9815F2300DC49CC4DF8D055CEF76462F4B7A7ACA7365C2707891370BC1D0AA6203C44CCAB47084F
311
EC057F27FFCD57F89B8B9852459798A675C66BD7CE572CAF71FF7E6D7ECF7BF62CAB7B3F1107DCD04DC55A3F9961700286141C94A4F771FEB2BCDA2DDEE0CB0BAE402FF1DB0100F8E475DFFFC074DDB4498AB7D186A7654DDB1CB680D703D47CEB4E72F8CB13D86A4AA68116E26387B93FD6738779B34FEDB8E517EDF2BAF2
311
8D9BE93A1D3A164320E07D42E514725C29515FF361754213EDE06B079A2E99EB1CA82A02019EADEEB87B9AF005BD04BBCECB14AACD6B24EFBE482194A97DD32400685FF1FEF1544D1B14EFB1E7F08E6D2CD2AF52DE757F35F5E62332EE88EA26417AD5C3E0E319D68F25414E6D672BD4522B278C57D18F0113921C71D96527
311
E091F00CEB15AE23D24667369BD3CEFA10C7549D930890BA4366F4EBC55F01F746109F98ABCDD5A3EE06619C6AD78AB33E48E4C9BD21BF7478B385EC05C4F8987E2C1BFA0A60EBEDAA0AE0B015C2720ECE180FB6F2DEFBEB822D96338C9B63822183BBF52FB664A7AE57003AABCE512BF77E7E31BDA2E739AC4C131657DDFE
311
5225E900FB56CC01CDE808FA4A9C9DA16AC679656BB64796283D89812B8F91136AE18EE5EBBAF47A73BE3C153EB5D4CD491B4BFB4FE690A4CF9ABA08C0D8AA64220C438C96EA6CA80B58FE5761E697B3A292EB9FBDA502FA863E49FE694ADDFFF9D62C520BDD1A22014147A0903A05B9B729F54272EF83931FEEC057BFF8C8
311
055C279EAC5C0011804828734024F6CFA319C9CC6867C727184465CD9BB7ED386AFFD96B294A85E3802FAE47244602D8273615952B98C4F23F7EAE4463D9D638EEE374A20959E0FE519C4CFB0FBFE5DD80C2AA3F9DB961D1BDE57E67C9BB47B77FDD74EE3094F5DBBE3EBC1FBDB7393F5116263009E2EFE1AF9A221B2AE234
311
C902BF70E9F280ED23E73908361565964333A3F01D0B006AF32FB21AA1316744B489D5A198E85299241735BE559675130955C902A8ED761FC0DBE337A9F91919AF5CE32AF902ADF9AB2615E00E8A94586BA1A90839B61832FF1BFB76D2EFADE6DB1BA04CCAD3DA649E7E2A0219F592E22F2AD54847EEA8E42271011E9074F8
311
F3DD9FBA6CDF88FFC9FC7E811AD1CA8F4557CE4AFC7BBEDCF0114A48689F20A584520C74DA8127124B767E2FB91A6B186246727BE63C9445BAE02088D58B8EFDC0F1072407CD9B89A13F6303B4A928F593AD489B58E6869325790ADC406036C591729FE14021F94B7796BB11848D463536A092A26F077F94639F7CEEE2A724
311
C66EC885F4A24F8B8A0AC321F8FD149BA529460FAA34E4663C02D41FDF80BCA222D42F0ABFF8490F4FA74C673807C2051D8E467B47B616072860069A9A303ABA9B319D58404461401B0A0F9BE5E1E151C14BC33B32ABE03DDE91708DFAEB15E7C0D593C86BB7D7EC17BE56E57975F077BFD5525F3A1A361D584A75E08CF29F
311
C7B44B2B3085014F3A5A14517377C3F6B8F37E59514C3B12F8AACDEDDA4DFC49BE5710101534CD6FB6DE15B50F11A09472AABA727F0C49D9CB906B158030065F48EB3625E010CEC1D511D0053474B11E6A4F01C0D6EF1BED3A944FDEC70E0DDCDC756C86545910E0DAE3BE3AA9A404574C2995CD5CAF9549226BC94B4F4F0F
311
5F9086F418F6B32346464610D8BC7391D3C3A3CCF04CFC1FB2A3A3170E369511868F14EEA4E5E438CC73DB1F3248AA94B6B2FF33B222FF3D1E7BF146CAD229770158063BCE4F5391964DF62F7E52A7BE0EEA829C9E13C4C147D6F93FE59E111DAB5E4594D6F3CD1AD375EE039930EFE5AF2BB2D41C83C7DABD8C659BAFBE8F
311
AB392CA634F3D15C1D945DB4588D2B0824A4EC928AAC565557CA2F0DAA588CA5BE30B3A8004F7BF005E96CBF891D7F18112A3619FDF530DC8AA64954258E1811789B5189B49B4EB53F5F89F7D37523894F3EB57B373763C91E502F52CC99EB7BDDF933FC324C4FFC2561DFFA7339FAFDD0A4BFBE6D3A8FF9ED1FC498981398
311
64602458968913181918F719CCF5A68B2EE9C1FF050E34E63107003B8120FA982C21B30A874E4F5E4B38D5A8290C4B8D9BE48A0BE31EA995BDC37AC6DE90BA17D259DEF53605D55922FEB1855D915B659FBEB350EE0DFB2F9F766E1C84CC8964B75D08667445EAB966015F63A18A9E0A325C1B3DC628C0D3CB60F767FA93CC
311
65F25458BD23C3B312716E5F40E5858AC06EBA9AB14F95DB99147B832069201541D09A0D856E12C629CF32683760EE855537D1901988D5EBC156676C7DD51D7207CF3267AF1D76C2AD867315E44618015313A98B19941C696FED3461CAA9B5415F918556D7802EDACEFD6B2E45853A9735DFC9DBF7E440F9319F8B6805A973
311
BCCDC76C069A9144E51F187EDCC12FC31B5DEAAF0A76137199B106EC84ADA6B6EE697D4E6A96E007417F4E880E8B1E89B4BCE9D81EF611E2ED8F0C1A6C25F620FAFAAB656A7C42D464880E8AFAB0E0FC8EA38CA9A8AEEAEE3E4648BA4680270A89743CDD3E6C6CBF34B7B640EFA285ABC7EA0A1E28F3CC963D114A80123EE6
311
6D0AF7D5380EB41909B605AB4765B709B808590458157E69BA1378FEC4B48CAF6A730E3BE3C5EF2DD1A5EAF94B1DDE50CEB55DDFD7EE9A16747FA4B223359FB1FCC69E1194892BABB93A1D5C4E807AC0EA2E30180811E77A2291F6E7F7FAA5E0F60215BC6024E48DE436C511F0628B8CA189982D4D83CCA17D305A7E923C37
311
941CFDFDCD93ACAF735EF5F0E61BBD3E6C41A59B242790D3A3BAC7064DCD89AA2E37214EC839820949D5CAA31E240D2948E48F690298974A96BA9A8432BC90F5071D6537C9666EA4564796B7AFFFA548077BEEA75F63083435074BA182F3699557397F71548383FDA8CA34D99B981E72835ECDA5DDDC151315173D05A21F65
311
1AAF8524E88209E2E7A737ED1045800CE3390050BCFB8BE588DF111617874C62575039CA588EEFDEFEFE319B739DE2EDC147092A262611E159650E787917885EF08F1F51B8F2D8A71D60B58B190FEF9541A1BE94BC19FEA50784DA1419FE4B0FB51B8D36B5FF8E1286FD8AF42B91E59A5F1CC4D60174E764045FD8C57B1820
311
9B217F89A62252BD20BE0E63E12B8E8F029FE19E0E8D0870F58721A557082250D5424F7909369376E41666C0EE77CD87CB283F661D5FB6D0DA023CB67320A20DC7BE661E9E1BFE5463085C557DA1FF9BE835733766C3D139F2CF9E2208873AD0EB4814DE9E6BF2CAF81614D4D43906ED1C05A3265CABBFE192770FC2F64F94
311
0CB6B17B5F166F133C9AEEAD2641807C3E69515171DD74C4A85311513D6EC9530B3B601B6BA3EBFF3B5C3D2F7D69765141E345F75433953D013ADDF8F6AA7DC3F4A7563FE5C7D367937E2900D7EAD0F9FC9A4A1A9B5BDF1FEF08532660C01C5D6DE22199AA774383E306DAB87E301ABB7D213887F9869D4942D0D71E94B27E
311
DF216A318BD488D45DF84529EF575AF3C3938C0AAA0215B01994153E2054A0B894DA5C784980633AAD48576957CF4AEAEAFADC7C587368551C73DBE1E57C58AC713303A8BFC258BD04B51724459FF9E24C03A81E0E0679CEB9B348C0DC998FEB9C6D6EFA77D247CC8F92D3848599ED89A23218D0636465AD1CEEB7DC140D74
311
26F83491C4E8E8281C2FB35240918FFECE880CA2A42D70E8B20B34DF5221C7DB0CF90ECCB9C745B37A47E9B716FF7A97B7A252C1F3814DC7B1E1A7F72B8751D524EF7CAE45B0C73B3BE7D08ED39781B380DDFC9AA4A4749C9493DB5BAD07A6EA6C092FBD0E85DB004DF06B8C9D3089C5320187E4CE1846158C7EA7DDAE8AD9
311
AFFF21AA3A1026BB06A259845E8232DEE62811A4DA9CEAB3A4887320B76E2AE5615EAB7BDF738CBDD01F1E64064BC13D9EC53576751CA8CACD58B3CEB0E6CA585BD089B2A59B9FC101403387AADBDBE70586B93D64BF3AD4453EF9C3B6A93817E8346991798601344F79A83C51F3D50F7BF2683A3605F51A72449489E0EE61
311
69C749C60B1035651103AEE24D24E51A759C840DD3FC6504DA6FE107510E447B43461C79D22970B75DE5E1BD3007D1AFC619A4A4A69B5626AF5E9B8374E20677F77E2F8E73DF868E8BEC7EBA7B6A75EEF7205E1AB9486CB642741D6E03FF13FCCEDB1C4AC129886268B01CDF4B124AF797CF784F3C6DEC97A17D4B558070A0
311
F1C04DA4FF9BDBF34159AEFE958479824B3F58EBD1E19088A2AFDE501B6F2052368A3FD0E650A179EFAB1561E1D27527077136E652676C3670F42DCB3352F48F6BC86D2C3B0051727E41A0A4DC6CE2BE9D47F5CAA2935A3C0539AF080665997194ABECD723B08129CC5B6B21D2E7D54CD4D12610E7E9FB8306771A89576C7A
311
982002775ED44F3F744CF21EEBB27A631671D921938AAEE3EB0D19CD1E083727F607823E817BF599DCED5394E37EEBC2E88782E638920CA641EF74D4CDFCDEF06F4278ECB18E31E7E9876F2D783C8BF429C75395F57E98C2B495A3DA077EB3AC3C158608B6B57FE3EA48484D9A480096FCEE0DE880950E7E5A5714131C5C41
311
AAA29FD19AE81AC145FA1B9E85C7169A5AB837B213493DF7E9AA4B5FBF9CDEB36EBD21EF1181B7CF7366AB2A951D01E37AF4EB835D1BE8C117CFBE7625D2EBCDB0B20C5A4B45CED0BCDE3EE8DA9DA78C2E21DEAAFFD1197E463C33CC6A80FB785669B856EFF7A8CCCA2841B5A5369173320B1170C368B2748D81062EA0296E
311
5E2D95D7667A4A46D98A6FF475C76AAB0A8C8D45E226FAFC9FE0133EA9F60111F99CA81ACE03A1D14C89E8B0D69079C91464FA1D99E651D0EAF606F345C42A8A1AA9BA391031582B96D5B4176A77AADB01F12FD298A75DEEBB2C82F0B8650E880722F8DDD90C56A7A058E5FDEF1AC93545BA27367C76F5D8F9690CB6F8DAE1
311
41EDD7971F0FB548A2AE435F224D6E5954CA155512F7332029D5A1230854B79F258EC5FFDB09F5F6343A8EB193229B7F7E79B3E48F8E183860B38C8269D1B53738FF1E0BACF6AADA6D4869E9DE708E79B5DADCC09B1BC76F649731CFAF59A83FD8BAE4C749D66FA87A3810D4D62FFE826FA400C0F325D2BC0F3CA35F5847B8
311
2A2ACC7961745C823E4D863D54460AF792CE6F79B5C7A33B25C3AEA6CDE15A919B6367D781E9D44F61BF828672594A3E1D9EDD6DF179A81F27EAC05B936575D73E05C209DDD2115CFB705DF9BBF3C911589B3640735E9E618FC9C36A7326C82B2205E244C55D56FDB9D5DC93CE958D4BF8174D2B3DA54CB3C09F2C2A6DFF73
311
D23B2197355761AD421EC581284A7EF8DE2CE3497C0C804D49B41DFD6A7360844E5BEFFB495CFCDB97A4595911CDBA623274CE852B5E278AF0BEB1770E9D37CD977B2766A7DED0E94B840E1E95E8C77DE5CB6354AF7871427C28ADBEEF7BA0A28E19DE9ACD75F379FE373EAE6DDDAE3834692F9C2B03B4FCA8FCA9ABE8EEEB
311
EBB725B88A7C90941E850682CA04061A7DF0CE82ED49BFAFFD42C309818FAE14755CAAE78B0F73243ECCCAD7DF58FCB9CDFAE7A4D3E6671A613639130D056C8383C8F4FCF4808C331E544DD26E4755D09EA05253B3049A1E32587CC25D72E073E2CD96D04A71BBCB0038FEC3F53D254199C3CDC67CD6664026943186022539
311
2B2CB3ECD0B4498AAE78BA1994246AE1EE78F2EDFB79F6C6CB6B5E279C4D373FBC21CB2698C9ACBBEB6A4BB6B39E16AB0E421CCBFC7654D81ED86022F9BB522146F9F4772E2D0E4FA70120C95A85A417BF5078B232F4754363EB1750B2AC2148EB46B1EA72AD9B4D23ADCBC589D70106C3EC2ABEEED84DFE28E718C6C83502
311
C28E9FDD3B09DA0A6F6F7B72B706A31C9E2A331EE70DA56A083D2177BFD63C55B11D8D949FAFCF90B23A1E24B9B5018B9A17E99F2890EC302F330FE7936E2C23F0D237EC8916F5166AB84B62A21BB0B950146962D754F92CC2C8877BED8FC7B7B25726DD19545392570B3A2C66B58F027BEF412E552D12A588C4A3CC5C3193
311
FCB3485EFFF700D0B9EEC077754A33DC1FB9E25AF814628F91DDFECB667D3F7690803F38D13F8AE39353523BB08FC6760144AFA2CE28236F65EDBB3D5F59A57D612B99E3D7E5F8A851666BF9B5A6658EFC96EEB37A378ABB0EB3FDDF1303AF32C41BD1C8560745D7BD81066B0D6313359CF488563D3BA3F8E2185D1FAA3EBA
311
1397C9D0E3DD232180A4DCADB6AF25DB3AC3CC26589C8239E66E81547BC7E2F328F9884764CA37EB5DBE390DFC03A5246B456A7C3684C4377D0EEF9A350680FA9A077E8B2957B489E09AB1AD41316944C2254B5984830F691C93CAA767EECF976FA5647538830B5E63236A6F0365C1E0F3E327F24FE35EDDBD7360B0F73748
311
37409F7A6311BECC12B7026D4FA1AE204FA3F5FE904B1F420C7A9044AE58E403E7C4848E7DA25DC9EDAC79DD756FAA26B9EA83ACE8A214A2612A22AFA19DAE7DBAC5F8CDE1292A485F98DAC731A29FE01A3966E96BCB9FB5A4C8830E1B9AF0C54B87FBE221A097036E5D28D1F869F810C06A9BB0AC0612F69AEBAF893C6E7A
311
D59460208BAB3A6B09CA4F6BDDAB8CF0D1F84B72487498395A70DCD754796E271099A567A55CF242BBED64696378BB6CF25EF0FCDB589F3A82F1116D010A9AB9FA4358809EE0C973A2B4229BAA876A70B03AB49CBA7FBE71DB1832FFD32F9BF2C8E98075CACAFB36921235D0F552B6A67E94E094097A5D7DF681B40623DA53
311
5ADA7A9AD8E9A62407D7C9A5AE51D62A17A83A23728DE86BB56115804D3F2675F2C6B87541A0FC497BF0CA86420F558C9859EBE9FAD62747E323E3AADC03FDCDDFE7407B09DA90B44E3185723C5381EAEF589765E2F7A099BA46695BAD60CEF3491B8A171F5F56444F7CE9455312C3498C74173AEA0214EC029833B34B650C
311
BB5A5508D5091665309642791708ECF27CF11DB3D797D6CFE474453BD4BFADB768094B2147814D81C7CBAF8228DCAF5564B5891F5EF6A860EB2E323CB82AB868D8EA048880D63B0DE5341F1B3D53297B928A11E15F25E5148990F710747C3509ED14909C552EBE3973246FCE55D00564D8310BC3EBC5085D08D806799B77D6
311
C57FDF5E55837F9E934F09C03C729271B64F12D0A9F9E938107CAF7BF1EC8CF1BB9B42363D33070F4CACB425E605DDB0A34A12BB936DE286B9887A4E2E558F0886498BFF49C311D96C277CF6A9FC0D75AD0ECC5226D7E0E3572012E56D7FDE4410CEC7A6D0F997F225A2055B8B92E3956E875AE4993CB3D4C9063AF98FD45E
311
1BAB165640A43439A2C9181A7C355B297C0A0CCFFAE19B6FA3C2BA238A885FBC98B8F6DAF4B94B97304878DF4D8BFF6A4AEDF79E90ED4E68F00CD7299F4E0D83E35601AF0CBEF18C1E870E74758FA91F5131075004DB3CFCF09AE1DABC11957FD9808C92E8A678CE9DBE40DDA0E0D1D505AAFBCBA208232BFB6FB3704E8985
311
E61ADE53DE74152F5C7DE74B1DEDCD37DC3E8FB30D7EBA8B9EFFC3606BF90B8D438279CB7709FC7C00D327F41817EEA71CD9E49FE9C8C9A81C70915D9F0F15958EC5AA4C3BBFAF46986B90F188BDB24B89DE3C6F29EC3E6F66D84856EE96A35E657CA41B41EFD8DBFA16AD6E91439EA92B40B21C053249F51AE50EB0B24C77
311
0FFAF40DF12C8436366819C48E36547D4E7B72FE2BBF10828583057814A668BDF183F6B2E58DFB151103E56303E63D00F39C27C4661605DB644D19175D02E3F0241E8FC3458D17AAAADB117CE9EEA690D0DB01E634878C04C2C9310B69FCAB831151E3AD293BEF6E46B0ABCECB50F5939B39C613D41E81FAE8D34CAE3C4566
311
B761D37185FE864AC32FCB71AEF39DAA5BAB88609BB980CD2F07A8F941653B529567726E2B2A58D079DD57E1E5E31426CF184A04D7B03B985F276D47406AF276FE32E3328BA866EB1FD39BEF57863A317634AA5FE467409B3873F5069EF0D71AF00AD189D17BA1974ECDB2D623E9E14086386A6AAB5807825C37B015BFE892
311
AFD154920EC437EB945D958E18622E1E0FE2FA06557CE4BB9BBD05A2D40E774DA2B65473791E314B7D6C886820B2FCFE4AA272B3B8B15E7344A145E8AF919B5454D89D36D413E87211186BF6F645E5EC94DCCE8E1C799022E4EC9BC86D7A0F2AFB1FC4B2CE48F84B3F49ECE65BAD24CADCC07EFF39AB06BE9E6B27A059938E
311
A7208838455383DDBCFCD967DDE4650EF92A14FF933C975DB20BD7FEEBC4487576485963D757D16340D9599FEB362F775F38CA4185A86F74B629C81B133644A3B18FD056E997E0734F9BE26D11C0AAFC669E2AC9FC41D281F8B2E1C35AE27BCE05F3DA295488096688719D974DF1B5D182DB7792288697F8763CFB43562C1C
311
DEE11C4AABD5C22B6E33F6F389CFC3477C5919DC0D533F8A7A1846B7ADB60ABDC26C43D0CFC8910B7C15EE22675BD02702ED39DB77A87A192CA7A543E6205B979B9F5A6B512A3CA799E198B2D5797C0AF8D1D872CA455D4D431A7879D4DD76110B5FF7F4176B54477A9EB5E4A5D11214FDA585F0382751D8E2582BA5D20750
311
53298FEB8F1537304E32CB22C2E2B693DC0A760B1DFCA751BDC445AFDCBB12820ED85F6D5298933C7EF1211E9E057684056CDA3FEF3BB6052355E162DF27C59E965A8DDB7F9437EB72CDDA3A090DE65A5B2F50326247B7EC67B73ACC7047FC9B353D6EE990F772207C6EC52B39DC2F3C0754821DAB559F7C1809C7D0DD5B04
311
99D0442E0A6E391B3D5DB46D11E731E6794EC77523FBDAA242ED67F9FA1FB684255671F63C9BCFE6E7E896D51001A6113EF2298BA494E0B0980D1FA5B9D60796554C02256B1E0345FB7C6186B6A19D2DCA270416262845FA4F42DB5D9B0A0B6F07FCA2E56C242522E001E0CEB734AF310FC8BFB57E38E03AACE93B3326A219
311
7891E68452B26A6307FDABFEE0223D3C03C3C73D2D5BC054C8311F12004CAE488E5C29287F8156A2CAA4AD0D7BE6B97264E4139F437CE73ADF52E5134C52B819777C18B323A5924E4F67AFD13B1CDC3A61793A79FAF5C0CEB718E441071E797C6DCCB9EFCF7E4A1E9F3DF3C2F9C9E8294E9586868788C972857FB0556D7A26
311
941A7EEB9B580AD78EC40B85DC906B4120A563CA3B87797ED612D3B035962BB75F6515A393F4CB057F564CDF54F2E5A024514E6A1F901DB80C7E70B1FC05E356A7E72FABF4775B3E3FB8F70A2A8E7B6A94542BB304157978CCC999E707A29CC795E67A59CC546A5D47B368954CA7B6E75EC9E1F6FC73CE3B4F71F8CB1A6B15
311
923D61EAAEB14626AAA9D04A26EB9C66CD1BE86CA31A5D8703DE04CD1EBCE4F5CCB62F93909AD11E55799A781A956ED27D3E738F4538CB04ADABC7DAEF20BC35BA6A90BCC1DC61BA05F20D8832FFB9BC9B15E2DB838A0AFBB7E0C82A562127E0446894F427794C3037186F622BF24DE1B00AA10A23BFA47B2A180D6DA5AD6F
311
7326FEB8C100C2D7142EB2A0B2A9D1008A09BA343D70E054AB69E2A7EDB783CBD92537FAF4A44D1296AC2792729104B3276C276C951D0CF3CF3F1E6B017720A7B8505A5FF9589365979678C36F1BAF759EAF57C60F1FF5FE9DCF5F8E764FF25A2D06CF25117A8FED51884C13B2B750DB0E4F5E3D64124FCF11F0AD8F1CC3B3
311
DA4B38ED22BF1CB2585EE6BFEBBA63FBFD44F9537B9B37BDD6B358720F98A8125AED4349CCFEB0E135F19E208A04CA7E2B10711185D72E381F448036EF57C9F874E54A971CA37A639E986AC0226DC5AA00D5B14FEA9192234B3DE617814FC221C92F33F1D392F297731B567FD98FD91D989379AF567A65B8ADF177591DB90F
311
BEA99BF4ED11B16E50A0AB1DBF1156D034BBE04D69D08F939D8E92BF525A1DDAFF80ECBC95D8F45D3FDD289FD23F7D8B452F8EBB34EC082DEEE68E18EDDF072060FAD2AB1504DD4879BF67099FC58F6E9DEFBF645D16334A3E9A127C6F1AF6132CF287E433B43A0EE93812B4AA0B194E03EE3FF91EF9C6ED0074A2F6EB18A9
311
6A7C9890B1FCDA1F2095E944DB911ED54C60DF16FB74C8CE9BDC7C54C4F14078CF73C2FFF1F1BBCCD7CF64F71407EA1683DBC410D226627F66E509060D5C0AFD611DE681D509DB8DD12FB1265B03C6F5C55FF4C30BD94187FF692B4F152982502F193098A789526A038AB529A52BC0DC4FB6285CBAC10A8B8DB75DCD9BDABB
311
B221E27D1F8DA9F5EE5926A1C8AA9BA9BC09239C6A7F12914EA3B59EFF7AAEC3FFCCE56F1C5C2980AD072793527565E774F4631DB178CEEC691B1F367BEA0CF2907E1D6B854D527065979DDEF002D8B2ACEA7CE21AE297737EDE1D45B31233B73FEA35BCFDD0B09721FDBAF6432681F2FD10C3E9EFB246FD6E854B344ACC9D
311
8A0EEF876A7314B49B6A499FC650B099D650DBFEC7638ADFD245E2B7839DA5AC5F7D5623FC0ECEEC8653FC9B2BDD1AD4D00A566FBA7186DD3C9CD26512551637498CADB950FEC71ADB9A5524285DE328B8EC7EC75D2345AEC6A27C42AF6D9B92155315C80DBFCABBB7DA0FAE425C4FB896B15C9BFAC4FE67DF5A23D30C93DA
311
4D8F36FB15D100050DA6062E22AEC5F4DAC4F6FEEF97AE05DE63C6D38F9E068A20BC5E3B6BCD75320C5090924E7F93640A7735B1A43451C2D91EE62C6238B797349E59890AF3A520DF4A87095F3ABEC2E61F0593416CE46CDCBE0E00E2523FCCD04408588B5B6C9DB6459C786CE378770B54F51DA3A5E1DF2A3349BEAAC234
311
A6CF8993B598B3B25B4B113E353A4D750FA7534749430F3EBF2512E7EA3FD43C6AB9A1F765A58463B306721A15D224FAFE8C6F5E3432D57EE697DA0DD5A9D4866A8BCCAAA9DFF1F06047851408FEC060471D0E3EB86BFAF46E4B5E60311DC3E3CEA147C75CF971BE74689507154FF2D2E92F15CDB2B9182B11459FD8ACAC5A
311
85F174BC94A7F4EE4C4F5CAFA7C02E37BF0BC77B7DCD0C047BC316F562A01A441AFA7931CC84A28CB9F4AA367EB515778F29BFE61195FA671F4352E5E46E3A64773F1F76EE5EB36D7BCE9BCEAD837A4D77F8DB8C92AEEF6711920D7C7D0F76B0FD0EB7AB83724CD35BCA7D36DDDF5FBB7FF6F04A91F3E2BB3B8F1A43CD6596
311
39507FF6331C5F697BCC782AE57D757A27D97F1AB9E0AEDB43F92F1B2AACDF5FEC8ADBAF9F814E2027003BA2F9E144B1938A7A04050AE5D953B82C45619165C813A10E76DD6906B3C16438064D14CDA713AEC420034613E1AC7241904A49FBF87409AFB1FCB9B72FE7933A87D8FBEDACECE4EDCF6A4FE9FB94D5DEB74FAB7C
311
FEAE17EE965DF980DCCA2D04134994F9A2E94D2265DA4FE6AA7B7AC15FACAC2B5ABBCD7DFF542C5314FDAB2E1B9D8B65220B8E2B638BE008E8DCA22678C820C5053664D15E89F2D735B51A84955E81A443545E9FF787BE0FA700A76D136C27DA179A7C6E8939E01BE756E19CB292798063D8B97F44E8A27BCF3A614FEB8BE9
311
74A718E86F7EC99B53CA35FA24F61F2B07266684623A3D4CF073E511F3A10A8FDAFAF0078C577F4DF9D339FE7862E5FA47CF4344209E5BF76D783B1B48E152AD281B15FCB934DCDA49CEC5706B1EE8B460F435324A5CAD154725E21AB8044B75A557A79F6C807B9340AA3D92503E866F4274412926C8C504E4D5EF8C0E68DD
311
0B028781A6B4054F11CF18941F101C57CCC796773ABC8DED9CD91FE5788806C05E548895354AEAC96546D55B0E94A59F148D061F42AA398D822CDECA4CDE79E13469BDCC44FDC990F366BA5978C15F97ED80CBFD73B0CD9B8B83A4F6845BDFBFAF034019473FB9A63BD55D3A4A7284757071574029A4D016DCCBE95DD679EF
311
3C4880BF169422F8C89B68A988D2B13793CAED4F74DE7486C72DC94DF46B8E93D8E02EFCB1FF9B3BA10C8AE7F653DF94F4AF466CDDCEF5776687F7C4C14B63E4EED1719DC2EC482D7DBCC7AE518CDE3D5FF86D39000EC3673C0044E1D308BF05F74D1B5F033A7D1BE7F74BC55BBE3E4A20F920946CA0271EB17BD2B80E5660
311
ACB8A29A79F5E4BBA49D4D945B6EEF4A7EFEAA65E5555BBB57A7E15D2F83C69F30BBB978D2B39F1F26FC097424D39BB33CA3D87ABF64E307938B685BAD44F71556A30B7E712CA4FE600613C3E554B69ADE949A7CFE214DF1FFF05CB82151EC6FC31950239F94CF7AD39DC473F6EA356E5EC2C4EFA04383CEFE985A12748436
311
6FBEE3C0EC4FEA363E4F6632AE781392FD45D67B63FB8DF70E82734F431FD3443172A0E30A83D60982D55FA6A2CF86DBA8382502ACC6CDEF3B907982EED1160E14863FA242F9757347E1544275CCDCF71ECD5F8621CBEA326B8BA884AD7F825781923E66971F04010D574C541D8427A438A37EEF8AF88240EED7362C953F5A
311
81DE2D56109CDE2524EA0F5D2F87308C0C47BD97AD605878AB8589E17CA83930CB5E0DCCD75853D68B1AB136594926DE426C367428E9334AFAFF90ECE221BB5DC9E5BB53D2CDEF954EAA9CD814F0E5725F1965DD458E5F8487683AD86B9D0076BE3EE91EB1CECC5331A67A3F79D8B27587C12EC2A6A70474749F27B4C0BBAF
311
B94B34189E88DC18964BE4121B9137FD516C7755356E50D6714E31ACD222621EBBCD1CFF81D87479056A9DA0E0B8EA19D24CF937DA89F78E8650CCBDC110AAB6C4E46DCBFD0446BA9E2060E81F314AC2031E88135E5476AC0160EF5C0DD2EEF1B8B5CB2D198BE9A554A9093B5F7D7E4B5407DDFCA1D9C152FD97F55BFFFDFE
311
802954DFEC8995B983E28AC92F1971E28F531DC407A1280EB125F64A72E617EFB27DFBCEDCDA2D6F2BDADA36873EE46B9BE1782998C63DA7182BC383FB6FD15DA472B175D7E8B4FC88F38D6E07FEAA3FA3CBB8F6B449ECF14D2175E5C5CCA3A42ABF24CA6C9395AF74535F4DDB38CB84F56614B0FD32D7E19CA5CF988DB444
311
9C40E23DF2B16772594554579094450F56F253CD25EA7F77366FB1CFE79696C428BB64D5A41E986189427E5E4D7E2DAE3D5BB4972B3DC44EAABDDDD63A2264ECFA5C786EB0EE1FDC5BE34FA0F08376869FD1E61EA06CAE15191135445EE8F0394161C3266A596AA035572BB0C8876180D8B9C77D307DF9DCDF7365ABDA6F3A
311
2366436457A4DFC1F259666569A9E4A79C817BDD5610E5200FCE894A358EC72858D50EF67545DA81C6FACE3D457BAF70367E1E6BDD9A952FB4F56247F58F523B97E640246051A72F79BE42FFA0B3187F63097F91C48B868586F714B0EBD5A00A8412C1236E1298F60C72BE6C96B82B404CADAA304AE9F303176B14BA53FBC2
311
D5E86377E35542019E24D97B96A49B2C0E5006E7795954DEAF5DA58958839043C6C70BD3B1B33B6DC5C31316D8A6923F142E26F6711A2258AF977DDF1F970ECC4F1F2B434B96D81BEB6E89BF3BBB3C7C8CC80505070723D6D7D7D3C8CA27CA164A26024FED94B12A86031867241DA53D929636DA600F050BC40CE48B8BA03D
311
69224720DEE2ED2127390BDF5E6EA64527BBD4C4C63FA76BB801FEEC0E61218EC98A8A86CD8313781617877E66692839B9468CF4DB8E50A73986E558E309C0D6F676F921BE02F1185454DC75B111572FF9D27D85EA14C05AD7271225B391C4275659CA4A43759D0BA44639BE4C30A84DB7F67A41399FB95CBF923B1B1672AB
311
C807C1590557FB18D811983FA97F5E609516D62281D38B1281F68FC75528C35E4CD7DF0F7DBB5E5DD69C414EBEA2F4A5B241B996BA77AE6C772E367408C633EA3E438B68563EA8BE7667F3A4C4FDEEA52ABD78A2820F443B7914A15F180018D231E64519C56A12F6CA7C8DAE18F06F6B769DBF92329EF6A5D18FBCE600F36B
311
D8E8198DE5CDAA96181F3A756EBA5501CEE58F497EA4F418A2B82565B9BCC611713C0B708CCA1F398B78C5F7D03B3437CC18F13061F55C7BEDADD5ACB1DB0E36D3CE47FF6EA1A563A57E9649EA5D14D1A50EAA457463381C073777EF1600607BAF6428A7DDC079D47A204EF1E1F1F0589FB054D45E02CE623B3823C317C601
311
E589E22B1E88B448524B86A82828E32345EC18AE17214B42F8C41C6D428016D9BA31DDCB47572561E5A402E5BA4FCE55F78AF7268524AA04130F3A20BA5D1E9F9948EA48FC8F5314FDB35E21898198060034ACE5E3E2BBCA34092518F275190AF65F45867FF0900AA4B81F25427414C372BF51DC29AA855C5428EE1EEDD6B8
311
49AD60F6E73475C2D2523F8A2772C840A478DED18A8C5C91B085F255DC4F54EA7AA8947354FD17ECF8FB3B4A0DE7B483CAF3A1165EE05BBA413E5C1FEF3DE1D6B8F2F3F3251C17D9FCAB48A9AAF63AC773A0E413BBC46A9ADF84A566FC920E4D8C52C9769EE3301CADEEEDD92B312E02E2A7E35B7F1E7D203FE5A7D75578B0
311
6E99D0E46FFADB8FDA17ED8880390DA29094202D6F645F76F6F96409CDA05495A96E84B04A00D1A6C6C81D7F3DE9376E828CCF144EE50E364ACCE7237EA0BFB5607ED1AC3CFE73794E5B61739D14DF1743441B1AC98F00ECEDE9E7301FA29755FBEFA68C91EF2B314CF510537EF1ABFC9A762496280B546F5EDAAF8A5B387D
311
469FC9A878A92828C88608453ACEC6094DCA54111E7AD5B2663DFE2DD151B7F123B9F4FEF8EE36AB125FD7AD52A59B1B765B3E3F73E3F73DEA93875004D2AFFE3CDE9493B87A9904DD052028949041A91DC0E1BA47BA714343FD5B25E0A6A09503AFC17C790058A836A324FE31D7893512E28230332F153181C1E018E1124E
311
BE1BA262AA428A518237D1EA7275E48C5C561BD19ED6912EDD8367DA0F31E40EEAE9683DA9257525AEA7B632B97119E17145A90231768A4F3B9120FF32E8319B015E3CBE26F1A754177D8185345817C096B0CE443A955D13AC15E1FB5DEEA0239EC32A3C92241A237B0B02FFCB4F93CF2B02570C8D192E2F2A68CEEB42F12E
311
6F8CEEFF46C251E22B4341C56FB08CCE550E7A9D6F4D6564B9EA52A83D5BF2C6E03FA19D2775E15A8A7ACF30A13C259EE7F5EF2AC3BA354F1500E1A07FC63FB4686E2F12EC69719F9ECF5FE3F35598DF2CE944008CE78F0911BA5BE5D0A34E0098FF038669C26030BA9B300303039852A8F6F496341737CA7E0D2E3AAA36DE
311
0A70AA7D9CA0D54D9AD84B18A44C9E625475E1C97B93BEBB38DCE7D227E67A2D00F531436136355F243D1FC0D712C5765754FA22FCFFAE97919161F46D6E61ACB37D83777B385889770B50765B127768443A5C4D3A4E35A3151111F146B7CA116F918A049F1C272F2CD7976C69A0068773451659A97E0F4A08FE604C3FF6CE
311
7385DB19F4D3ABC8A0D80DA8A42096AC377DB49382B36E270B6FA7570188B4B7D1DDDDA82ACA487CCA5D38BD3BD039ADBAFA4ACFF27809239B722081E2EB9F145320553D183F28471C388BC8814E5045676767AB58A8E72D1CED2CA731379515D2E533E4CF0B39DFC625F97AC4836831A4DE330E87A8126FA17EBE583D614E
311
71E22A8DBF2825599743E0640037303E8E1B1E8EA4E1ABFA4F62907B5E4E0E5DCFDAB417C36C6848A2B8D15F1E505434C0707E16B1CFC2A1C36A42BBF55734F8F4301DDC2A5110CEE8C0747F69519265012A2174BF4E955ECD4FDE095A3ABC70536B7AD0B9D7892F81287D667C108703C9B66A221E9A0929D030008F77FF6F
311
5D2108EF5706FC87A3069B976F7C9FC3239D13D283CDEA83597461079FEEE049B0F392889898B7D87D31F8D60ED7B56B91823A8E4EDDB36C6172ECEE42BD42B12CD67994FA0F0DFAE9389356F4CD4425A4B8AA55CBF7ECD585C6A2C2316791E43D5C06841ADBB226A87FD61515FFBB0167B74E56BD7F3E90A57A97FEDCBDF4
311
83A0D6699A8C0849CAEB4947FAA90D8E332D9DEBD9F4738C37DA0CAF9CF3DAA68BCB67C420459C7A64498D6E848E5CADE92BB6901F607AA331104A67F7CD650EE169B1DAE94D2C31C2F993632259B6957E246EFE4C5481107B07118607700040E5812A2A2A38DA0076875258C753F60E0F2662C748EDD5F3F3686B8FC3BD6F
311
E631ECCAA1E8B1C1E565AD117E54893E79F4672E32F9E46B2A183DFDCF3EECB4D4D077DBEA0DA254D256045109670050129E9B9B1A9E4A11344D61497A992778095151510C4BB7EF2009B63AA4360635312E4CF668B7E0D3D85A8688E2BD83B569439892ADB63461930D428E0DE42E4AC57CE48DA5CC1449530D8BD3D6A0F0
311
8DF20C8E8F570F2CFFFCEA286E30969B4654D498A58D9DA782E19FE3F002181838925592C4A1EF0B332D88B61A92C644547BED490D3A42CFFAB70E36D961F694F6307F72FF15A1C79D5B1B5CEFD353D9E2B52566DEC8F8F09CB3E8359C0F68EBBB7898243E34E12A015B2685AB303C04D3A9E00671FF3DFF0A184E4A2ABEB2
311
B666AF5B3A209C73D8EF29DCDB069C9F391EEE9DD0F74C7BCDE16F8F02E3B8816122BBEB50665775B600549D8BB33A54A6BF940C028118BC6878C79958D6784F9DEAA6E26748386FFAF8D0D0101E2847B6563F5D8DC1D78F787BE00E2C941AE12148D4A81599FE8F68D4DA5CDED75530ADE138240300EE13B0FC13A1687FED
311
6774662C05A2B7DFB186732F0D7A93545D8B0A6390AE5054D9CB582DA846D7A061B3358B45E2B52DDE63E114397EDB7E09233A579155D795BE76102CF277F4DF8B188C4F2879BEAE3C08347124BF9ED23B128259FE107D31E34A652F090B30B39E0D9AF917B76A2806135621A8A60681F16AF216514BBD02711585B5B1AE82
311
3F4B2D0369EA5B6BCB863072727FFC871CA6C9AB79A814D989057E9470A3D238BC87CBB4A0EA49AFE2B86F22E499793CAA9047080450166BDC357524561E258C77CB697F1ABB32562CF87C3B7AA12F911EF19FB3E5C02222E887D08202A60A17151F5E053A86B437771088B4FEE14D652C43E8D939995D34545E12E2FF93D4
311
E366EAD25F10CB7DED141563C3D0C447AF06078A91135FD4B9611583CB4BF3BD167F2399CEAB0E0100F8FFC305F00F1711717173138B4B48C83022295DE657EFEDD97F238ECA80F528AFB4F8D67AD4E2594B9A3AA86D7487EFC313BA95745C186F0CDD84CC12DC9CB0424B42203D351FD9C0A3AF10CC7F388E032927908738
311
6421F194F4A29464C1DEF7EF8BE515E4A199DCD5B909342598D8FE6A231F71336248D5CEC5454455C7BE383B3BC7B260FED27F703FDC39A170F3827239102F59D4DEE7FEF82EAA1A5E4BA94DCC4CC44E7E2EDE20F24244E4454369D2E87C3F823F193FD4FD27E1C23984B01898D15ABC20711A8A558054951A6AE280096BA3
311
6CBA439603B7B0B4C45F248C14B2383B4B5CD8ECECE4FF859AD4A6CA2326D020EF090F4041D28DB66E5256B56232CC52829DE8060BAE6BBF37D4B7469B822454FE93210A3E8D15E69FFCF01123222611C51C4FD0A041A0CFA2471CF6BE38D2B20FA4C3525B5B8B586759475CF80ADFE67A284AC24651E52B8E683D24C26226
311
42F27E7C3C22783BCF63648BC398BD6CD0D9C97E7E7E3EACB6126DB7A6C1FD9F1031302EE67ED96F22B77C7CA0239BB324207559B105E4693EB26EC46182A92C9C0DBD24F29B31C5C5AC1F84300E0E17CEEAC15F5736FA4A98971E2F1423BFCD68D4BBD5F86E74B40A369F39507C88FCDB35D2DD8DEBEA4AF999E23CF2816D
311
204200DF6E611781B9884C1AC8888B4DE397320472959434323A5A36B22A8E1F721A270DF3BD65E4A31C11FF048AFB0D8B7B6881423793963A23CFCE935FC189ED36FAE35C46DA3574C979E4394BE52084F3081837BE033396D2EBD80F1F691B273F660D2B32FA27A33B1DE4ADA5F0FA4651511102DFA410DDA86E065272CA
311
314D5249DF91B06BB92807B28EFD54F08F7B525252782CD276DD02E6B0319B13DF87B1F6361AD6B28FC0D711CF445429B9E5A433CD493051C49A9E03DDB1B147D880253514A5DED88009018620EE229101C041950E2D8AA8E1F5F5438E0C0C0C60EEDEE9E3E0C051948C69F84BB7B2A48A1F3C8EB9E6864687F4F4F6F6E2FA
311
87608ADAF9C5E117B7C1A737E710769DA1D15ECE6A84502AA855398712D5FB51BE92E4EF824969CE18278798AC303C2C7980DD2500ADF8FB1E6D6C2FAAFF9987178923334A244758BAA01A9A1B70FA5097D01E1CC2A58DAD0EC94CE6430AA9B0C10D75E3C6BAC670EFBADEE1607739CE0FC18A2587E3EC3058562014C64219
311
C69BC269082D5C2F4A659278D585755912176D78A1B641719C2A394CED495A1AC5D583FD2F5EDD93308EA7EAE8A6DD396598BDBD3D4CFED62D18A5BDFDE0DD5C80D1A89BA62697B131AE7CE9A6594138582F1B37D68F1749AC7CB67A70695D48A4A056AC1FBD4E82358CEAE38F54B95A9016F9000F9879C0D9D131768635CA
311
798895F27D6F1614F11F2838A83611AA51C9A3DDB539D42979C29F10465655C17BEC3E2760B80DCBF609198C7B171A531905F3EC218D696025975E986C6B4C666666787271F202805577DD5A3EF0CAFAF91B62DC4B2DB4217A7606282F31D8DDBC290593BAA93EA6353AFA9939B877978481E15CFC9F2755CDC00C538F63A4
311
BA3E80AE009B73CA0185687D339A507D165B74290D6EE46D5C58148F020C3668ABE9EF2F7549170DC80DB41FFC1D678FF19AEB10C7133832B104B80F691B3138F97A92D26E551F1F110400D45AC71A9B9AC41A1A1B1DAEED0B0810638EFFB511D46B121C6FEA0F38CD00E03CFFEB9713FE1F9C263E4DDEC160D0497FA9A132
311
BA608584057FB15380825DE6C7FC3C667EE947D488A09898D8E939C4953BF4EC9836344D2CC6B2971B2A21A572B06096F4982D2CC7232D46E8EA69DC83722E267754D777F97F96D5DA74E1E75178084D0E70F12AD33E5F71EF2AFA599B2BEBF60A5BE475F444F240CBFE8143C334E7ED9150FEEFEF7EB020C4DBED388DD1D6
311
A167A76F3CBF119B578AE8CFA7736ACAFA4440A1C47185638A0D2F3EB5BDDEFDA958FB13CE4AA4923D5BF840392D45544329525749734866684BF7F8D9D54D892E19BCA9F829A0F8BFCBEEA6CFDFC61D74EA1A645ED7A1FF241739F15694BD835B66FEC5677E40FE69BD3F91AE402F036537218A401CB0828604AD189E5750
311
15C6F3F6BBC8AC79CF6C70653847254B31551EFCBEB5978B9DB85D58D0FA41A9DFE9C624834AA04949D24B5AE6D299E072D152D12097920F14AA92C31C3B97E28B6C2E6E9C23D63043ECBBC0A60FDF5BD0C33C127EA8A3308B8B6AFFEB28B4455BF6E7AF4FC6222728357EB8E46E85053E6A8843AB23295BF838ABDA94658F
311
EF3F832F147046B4ACD6F7D48E8FCC9618582961C898D1C7A253C91BFECBDA6BA18A1FCF70755DCCEE2222F41B76D23CA98D0CB3D95F0CF66D57FFF65E2A90F5DF40FC3187621E981BD0BC1D992787212688976B94A8F0C6EF646624B570B78E068826F87CE27041A95C9A4871FF65CC17FCB1639629AD6A9517000D63AC23
311
1F3D741CB8430777E7ECF80CE7A3F73C0F162F7E56AA71F4DA80A33CD6ACEE78E2C11FAC03DAFCE929B106F8F6B3ED2DC71FF994BD9CEF4E9A94896EF1B6E2B7B4978168BCF0847A3D2A4F1B0500B926E634B174548E9FBAD27153FB5FC36799B1E6C7C38A94E1F9E996796D7B485E635D5287A2AE76FBD11A341DB3F8F810
311
385BB7296391973DC6C37C452A9305AEBBE0CDB6C566DB59FE60C8E94B1FD090354BF51439FFD1B48D725228FFA88C84F686F547107A7A235665A4593B7C34D748C1AC8D56DD5DA861EEFBADDECBBD65117E65851F90351AEB65F0EFCFF4BCFEF24CB7A5879699FAC437A7AF9099186CF006BB923A59E37D7A36A29FD8D2CB
311
B914A5E9D0A8FD212FBF796AE9A67958FF1D5D8B85F78F96219D4714EB919929241B6C018AAE0C02069F8D919961EC5DDFBFB7573E3AC8E08BFB7C8534BE6DE045B3CD63DBD71F7638BA2309CAE398EA3A7D8F98BBBC7AEB367EFA5CFA27A9F8F2F52FE878058E6209C026453F8E7E8A237DFC389E9590F6059B397CFD6518
311
3BBF936E86896612A5B5FEE49DAC8455D026218AFEBEC12B3523A45B57B82C9C97E02ACFA1184DB18E48CF615DBF39C3CC6F0B4AE6BBEEA2E39D944E290302FA3DE33FA7E40296E2EF7BF1CD855BBECFAD0FD622BEE9746FC4FDFDE545AE6E3BC234CADF83A0FB76DFB145BF3828AE3436368AC24989454F8FF70A177672C7
311
11CAA1A76107218CF948CA01F873520E7A2B118EBB161ABAD432932029628B6761590C98AB590C8C8C79798CE9F715BA696E839E9131A4BB68BE923F1747FBFF165331FFDD4D05997ACD168F12CA75348DAC04C7F509FE83898A8B421181AF492861CE81E4A2DD0A30850CFA95E05F097FF70F9E777310D584A75BA7018922
311
E271DAB1D785671157685B7D383D3E074DDB4F1E44EF04B07BAAC75A062077C54B9752C738C9D804D402E02851F3F89605AF189738C18C021D2139EAF72513824E10DDD3047BACC8521ED7E98B257D1166903B1B08FA6F918FD7E162913FEC7D0EF4787E29C35FBA8C6E2C9C20E9AB30AE42CA2A01A090E7D010C1B5BF9CEE
311
2A304BF3A987FB40D836979B79E18D70F257DA61E808472DD85B82761825779D6B90CAEB0F23360C6F80A7D7D77545E95B3DFF0CF96A827F9B5BCECD2C9698718417EF80FEEDEE938AFF55859D0D540B7FE09435583A6F04874A0C7E8CF234DF4879722000167F5872CEC6BF3EF7E5A8CC8121E6A359227C8A29C95212F9F7
311
35BC72A887D56B8F309FC525BFB4FD767AAEC4AEFF249CFBBD2DE1AB9969A6155C7D8DABC307E47324C1F916C7BCFF40ABA5644E9FFB9238D19ADADA49D9610F01ABBA57E4DFCBDCCBB2B93C8953206C91DE01B0E2651A6D6C31721915B31F7B7CBCE55466F6D70402788FA91D73BE4ADCBA99A35F17D6B83383704917D683
311
3F0FA3CD45C926ADB8BC17999A4A0AFBCE2541F7B8CF4C2F5FBA611B3E626D64407CB32C122DFF4EF8674D6EDBB86C8F7C6A16D50FA685E2CCA34F8F7D1D8265BB0042E9D7F1F666F7BE5FAA5184DF58E12122A42EF02F461B3F369AC746F96528AD208512AB56844CF75B97F352DF7995024FB02855385854F3798670D01C
311
AC771AC3E1889EC25F61A20C1F8CAB46898817F9C47E2CDA1F286BF2F358298709FE567C91133E2638C8B53975E753EA8BFD3578B5F7186B7BF084EBA3F77BAC3132A5779902EC22AF2D2E79F42D324E083386DAEE9810D1B44A5DAA54513C7A71E52A4AB9257D975B621308FE4D2141CC3DCFE946C154A3C1DFCCA7629EC6
311
9ACFA831634ADDA93C0388D2A9A2DDAFCF957C6995BCE7FBB6DC4EBAE79E63EB08E9A25F52F67076F7093CA545CA3053B5BF576DEAD4E0017143C5F759F32B2D6F145B52B67B48909B7C7FCA6586EE385A2189C16932CB6DDFD9152AE317C430492A578ED27B72D85D40C7C93C097939E1B50F4D67F05334FE9DC362C30B7F
311
F561B95259138ECFD9274C8D695C31B14D4EAA9F3D7FA8DDF652F8C5DEFA23284C799B7D94416DEE81E05A866302DC70192A5368EA65E1CED8BF107A1E2D3119A71E85DC1A7B0C1E93274CE04DD0F2ABC8AC7C987FDB002B6F81757B43502EF7A0D92E416494FAEEA4C9C090CD9557AA4D532F4996A272B94355C5A0E4974E
311
EA9627476F30809B94D8D8D860062E02204643BEC7D0438AF800FC7E2B26955D595421E83C69E1A07E0E3122285835F014AD538188CF9737CE76D464A353FA55A001AB2526B84E985083693BC76FE211CA1D000679C889E3C009832C87E1AC2EDD05C302557422DF0800E316FCAC86978A371F025A6C7DAA9F333E7BD16040
311
3A1A06EA75AA9888FF01504B0304140006080800B7512B4B28BB58AF800100009E0500003D00000044383838443935362D343144362D344345322D383445422D3633364343423835393046452F536368656D61732F436F6D6D6F6E536368656D612E786D6CBD544D4FC23018BEFB2B96DE15493C78601010A34B880709DEDF
311
B52FD0D8B54BD70DF6EFED3AC0B12E6442E2716BFB3CEFF3D18E26FB440405EA8C2B1992E1C323095052C5B8DC842437EBFB673219DF8DA659866649B798C078B48AE6410122242F2A4994AC7F93815DF85C049C8564CA0A901499DD886B2EB9B1E02448F358701A9235880C49A0119892A20C89D1B9FD768815CAD268CB5E
311
0355B40B1E47F3E37A2020464BED06AA57CE8FCC20C3C3446D46761A2632A8C1283D07031EFF2AE7CCB1BFEEE916E406DFAC8E36FFD99A9D60A6944090EEDC3B670C7DC13DE86B6B2C5C240D6E503BB85ACD579D513F1B9F9A69DC9CC22AFA80C426D40AF0B21EA168559156B6276F0F726A6BFF04DCD513A87A62CAD41FB2
311
4FCB2858B3952E3D852084DA25B9303C15687973CC8E8AAE11DF2836C38C6A9E765E8C1BA1BFB1DC29CDFE518C8B5A7655A4ED7E77291ABEB80DBD82EC866ADE1B8D05AF9E35CF09D7A061F38A986D9EC412B8F0F65E5D81534D9B231D1E5A8FE577A241F3A5FD01504B0304140006080800B7512B4B2CCEBD668A040000E0
311
1200003E00000044383838443935362D343144362D344345322D383445422D3633364343423835393046452F536368656D61732F47656E65726963536368656D612E786D6CD5586D6FDB380CFE7EBF42F0F7A649B70E1B90744856B4970F450FCD7A5F05459613EDE4174872DADCAF3F522F8ED3B88D2F1D06AC4050DBA249
311
3EE4438AF2F8EB73AEC8466823CB62928C06C384888297A92C5693A4B6D9D9E7E4EBD51FE3A931C22EF85AE4EC6AFC38BF261BA626C9AD288496DC3F4FCEAFC63366845F7A10452AF41DB320C0D44EC26EAB20918735565582695670811A6A49643A49A6E9069FA4604A64B29016DC4B48552F95E4932463CA888468C1D2B2
311
50DB4962750DF7CE273069CE8363F1FF4EDB00E0A21999574AE4A2B00C353B93F3BD4777B8A61ED8F604ABFEDD79CE56A2B7BDFBDBC50996E0ADDE16FED26223C5D30956C29BDF4A55EA686E5E58B112DA45CE67F76F4FA27EFA3FB672FD7372FC388FAECDCA5209E693CAD167BADCD272F943701B3812F8A3D852008B1D2E
311
32DB927B2F833C6EA95879925356D254582695095A3CE982924720BE5774A3CB9CDCDB350427D2DF20DA1B5532EBE2D5D6288D75D4F7E4FD9890A0EF8E3D93EBB8F8BA4758158EF6FB90A6F9520281C93DE7AAC6D24607DA296BB96018123F821A7D6A5C5884050C475DA4865442732C8B95684A50165CBB3A32F25F783A4A
311
480ED59AD7F924B968AEA50131F46303223E6A397B0E52976030DC1DCA81D7E7C1EDEEA42C19FF27635C505E2BD5198A599020DF50A2330FCB3AAF28CB0124108429553EF1B228802E2265D8F7CC2401042B155BCC7070F1E5C55F13B4A9577362CCCE46C32174E010C3C378C44841A4BDA00FE3A12006CE11EE6AEC59894D
311
3526DDE1CD59D503ECC324017F8061B7F162162FA62EDD81AE3308617770796DCBDAD2B2625C5AE8A63DE20B2C8AA5E95E76E5730823955956E33E705425A2187C185D36489A1B44D3DCEC2172F6BA2105C3546287A7194B2331768EBBE64F6E70A9930ABE0ADEA89E9E2C38523B810287AD67A54A039C1606EAFE68F83046
311
10BB9093DBDDABC0B2AE4E290DCDA15376D7E39F72B556F0B32EAB5D3D498B4C41ABADEC3A1434C422D87E8025A84BDCB2B1417ED750FAE4DA8976863974C577C7F902D3F156AD354DEA3540DE6BEAE2BEA52F7A2EB4CA43802ECE5BF2CE2EDC9347179FFB023CE412E60BE16DA0BE29B374988A553F561DC04615DD35F7D2
311
C8979F60E5955CE93DF29DED8AFA1EE6642D53418086C03C47C377910F75F7E8F5EF665F70B60FFB22AEDF897D119E8423C773E819A3C1E55E550599EE6EDCA34D0C86FD72057DF2CD46F16A470682471C164E4346D5306BF12D7D12D82CFF673D41636C347443FEB51B50D72EA171A8E4A58623A4A16E0FA2B8B10A0D2326
311
8D87C33896EE8FB73305A74BF224EDBADFA0BD674AB354D63DB7BD5D83426761C077DE767728235446A552754EB93B755891C3C4CC6CADE37CF0E912A7BB38DBA010F9DE1282EDF470CA69A9CDA482E334C4A6EA4107987980B17E72F31730EBF88BBD39E7C629F56797A3C0009C2C5AE7951D9A05A02773440F02EEB4DE39
311
6A3B6A570C72CCFBCD823B0B8ED3F1D5CEDDFED772FA70236C83FB7D86C385D570B87107535572A60A96035F8F7C6A7192F13007246BBE0521855E6AC46F3E27689CEE7D186A6FD679D98CDCAD13333E04EBE7ED6F55FF01504B0304140006080800B7512B4B6180134D5F0100006B0300004500000044383838443935362D
311
343144362D344345322D383445422D3633364343423835393046452F536368656D61732F52656E6465724D6174657269616C536368656D612E786D6CA5934D6FC2300C86EFFB1551EEE343DBA41D1A103009551ADAD40EAE28A4A68D9426284961FCFBE5A340113B2071746D3F765EBF4DC6BFB5407BD0862B49F0B037C008
311
2453059725C18DDD3EBFE3F1E829991803366715D474942CD30FB4A782E00C64017A412D684E454CE3FE28995203B162A6EA5AC94B66997D225E109CD63B0135484BAD1B3C07E9080CA35DB3119C11BCA5C200461A68A1A438126C75E3E230D40FF81FB3F03C91D1E3A3A0AF79FE28E25BC39EC3E17E4C2A2D94A0833A51AF
311
55BCCA7D88572FCBAC529C4140B020FC3AAFA886621DCED7EAD7664CC86024E806DC297DA1BB393E4156543457A4537DB8817349A70F8ACBF09B3EEE2CB2F33E91B65D60786E4E3B39B77E3FEEEF5650424525DA657FB8B46BE6BF064646F0A0F7327C0BC1BC1B4CBBC1C419FA3CCB23500007872A2580CAAE546186556529
311
4E4EDB4617B62FF579DF9A5B2F54E834076A597573A020912FED777F9B3F504B0304140006080800B7512B4BFF5C515E51000000570000004700000044383838443935362D343144362D344345322D383445422D3633364343423835393046452F4173736574446174612F41737365745461626C654F66436F6E74656E7473
311
2E62696E5361606030327133713137B5D035747176D535713470D275343773D1B570B5703430B070763533321002AACB4D2C492DCA4CCC492C28484D2C4ACC4B4E050A82012F90744FCD03CA26072767A4E6260200504B0304140006080800B7512B4BF865834058000000680000004500000044383838443935362D343144
311
362D344345322D383445422D3633364343423835393046452F4173736574446174612F53747265616D56657273696F6E5461626C652E696E66558CBD0A80300C06F73E4B117FB66E451741D041DC5BF98480A492E4FDD18EAEC7DD4555D89EF28DF51A0B1BD8340C4DE7DD848B988C0ACF0649566493F2408C508DDEBB99D5
311
129FF8F1AF8CF5B9503E20FAE5A16B5AF702504B0304140006080800B7512B4BD53E836037010000A20400003600000044383838443935362D343144362D344345322D383445422D3633364343423835393046452F4173736574446174612F636E782E786D6CCD94314FC3301085FF4A648931765C900A95E30AC1D209242A
311
06B6AB732956133BB22F08FE3D769B0154C4D421EBE9BBBBE727BF53EBCFBE2B3E3044EB5DCD24AF5881CEF8C6BA7DCD466ACB5B56ACB50ADED30F8C150E7AAC592E33ADF6C18FC3546AB085B1CBD5CEBAC354BC8F11690BBB0E9FDA07EF081D4556980E62AC5934EFD80387917C83F1C01B20E092078C7E0C06D324B23D4E
311
934C40206C985E5472595677A5945B59ADE4F5EA66F9A64426B5DA79DF4DBC4DCB821FAE169539ED65BA5222035A8DC14E547E0DD37FA9E43BEB9448A45691427265EAA0AF2175C03074D60025F3843784542608A157E2046B25B20BBFBC78C4D63A9B5B36491A900FCF492006B238434FFE537B796F362E1238837376E45C
311
E3E57D7839FEA2D7532C8FB9995F5ACE3572EBDA0B64451CCF498A4EBE2EFA1B504B0304140006080800B7512B4B543546D9E6000000600100006700000044383838443935362D343144362D344345322D383445422D3633364343423835393046452F5265736F75726365732F32344634443735382D314443452D34413042
311
2D413736442D3845384130303843453632302F7468756D626E61696C2F302F636E782E786D6C4D90C16E03210C447F6585D4E32E90544A1BB1E4277AEAA5A2ACB345018CC054CDDF175A0E398D357EB23CA32E3FC14FDF908BC3B832B9083641B4B8B9B8AFACD2757E61D345AB8C480F189BA209B0B26E33ADF68C350D6B83
311
ABA9BEBBDEC5DB307788909DFD48716793F5A6949515FB05C12CA6126E506ECB66C82C72C950B0660BED00B900E380CD600836A60F429E66F13A4BF926C5591ECFCFA777C53BA9D527A21FBC8B0419D3D341586C636CFF08C53BA055CD6E503D04D30FCF29DE965A15CA2DFF80E89E1A6452F2CE1A6A3571B4043437084C50
311
FC1FD68AF7BC4DFECA68DABBD1BF504B0304140006080800B7512B4BA233C2345D000000800000006500000044383838443935362D343144362D344345322D383445422D3633364343423835393046452F5265736F75726365732F32344634443735382D314443452D344130422D413736442D384538413030384345363230
311
2F7468756D626E61696C2F636E782E786D6C4D8B490E80201004BF42E6EE76F3C0F216234B883063108CCF170C074F95AE5473F5C4C06E932E4F28601967600677D21E9D8092EDB002539227A2FCCB80E1168D80A6417297A89C5D6963B7129A0D1E8F2EE73AA7B62BBEB8B27DE50B504B0304140006080800B7512B4BBE89
311
762363000000880000005B00000044383838443935362D343144362D344345322D383445422D3633364343423835393046452F5265736F75726365732F32344634443735382D314443452D344130422D413736442D3845384130303843453632302F636E782E786D6C4DCC3B0E80201004D0AB90EDFD75167CCE820A4A845D
311
83603CBE602CAC26799919AEEEE0D965E2E908050C6D0FCCE04C8BC355404EB6198129C92351FAD580A10E464065907C8D948F8F166375F655BDC3FDC3B4E530A176BE7057BDC43B2A593FE403504B0304140006080800B7512B4B473CAF397E000000A30000003600000044383838443935362D343144362D344345322D38
311
3445422D3633364343423835393046452F5265736F75726365732F636E782E786D6C4D8C410EC2201405AF42FE1EA50DB62C80060BDEA3B1B4215230588CC7174C17AE5E3279337CF86C1EBD6D7AB91804342702C8867B9C5D5805E47DC10CD020798A71FFBB010AD36605540C92AF29E6E78166BB4CD957EA5D781CB0A537
311
AAFB0BC38D1E0DA68A5CB1EA3B8D99618A10369AAE25C53857A5CCAF57B6E6E517504B0304140006080800B7512B4BE5F6860E0B010000550300003400000044383838443935362D343144362D344345322D383445422D3633364343423835393046452F536368656D61732F636E782E786D6CCD933B4F03311084FFCAC912
311
E5F911900291CF2928A868808ACEF836C18AED3DF981E0DF630717894407453A7BF4693533F6CAEDA777C307C464314C44504E060806671BF613297937DE9261AB6444CC27181982F63091261325F711CBD2A51976BAB8A63A1B0E5DBC47EF313C9B77F09A0CC6E99426928E57AA4BC619D281CE3A6B2A688484251AA813B2
311
F5D02798083AC34CD48A8BF5C8EF46215E04DF88EBCDCDFA55B2462AF986E83A6F438688CBD58A1BACC7500D71C91AA06489B6532D0551A7EE68ED43B24A289972AC2D74327F2D95D4CBE2ACD1B996C58EE00FA3246B61CF223F408068CDA5663EB3F76FA19F20CC101FEB4B45ABDDA566FFCDE5DF2A60C70DA8DFA02D84FA
311
06504B0304140006080800B7512B4BE3603EBE7A000000C20000002C00000044383838443935362D343144362D344345322D383445422D3633364343423835393046452F636E782E786D6C6DCD410EC2201085E1AB90D9DBEACE05D09878023D01A1D34A8419C380F1F82DA68B9AB8FDFEC93C3D7C52546FCC12980C9CBA23
311
2824CF63A0D9402DD3E10C6AB03A3397DD192872090D3406ABE7CCF5B5D18893ABB1690CF4DCF02282E5EA8A5BB96FFE536F285CB347F95BEFFE81C9ED5AFF9D5B1FB575BB00504B0304140006080800B7512B4B8F0ED5467F000000A300000007000000636E782E786D6C4D8CD10A832018855F45FE7BB7DA4AFE200D52F7
311
1EB12C64A6C3E5D8E34F4717BB391F7C9C73FAE1B339F236F16583E7509F2A20C6DFC36CFDCA21ED0B452083E86308FB5F0D889F36C3A16810FD1A437A1E6A36CB945CB1CEFAC7211522AAAE65B4A9550EA92F141B3D527665528ED876D54DE7C5B94C327E7F99E55E7C01504B0304140006080800B7512B4BCA1DF9C9A900
311
000073010000130000005B436F6E74656E745F54797065735D2E786D6CA590410EC2300C04BF12E5DEBA70400835E500FC800F84E0B411AD13252E2ABF27A55740421CEDDDD9B55CEFA7A117778CC979527255565220197F75D42A39B22DB652EC9BFAFC089844F65252B2630E3B80643A1C742A7D40CA8AF571D09CC7D842
311
D0E6A65B8475556DC07862242E78CE904D7D44ABC79EC569CAEBA537E3521C16DF5CA5A40EA17746733E0B6615DE7217475F386F18B9481C510F1F021CD9FF027EA0E1F5C4E609504B0304140006080800B7512B4B3DEE336E64000000790000001B0000006175746F6465736B2D64657369676E2D7061636B6167652E786D
311
6C35CBC10E83200C00D05F21DCA56CA76D41FC96062B120735B69A7DBE268BB7777961F8D5AF396893C2ADB70FE7ADA196782C2DF776D7A97B5933C430F15651E5469C55D70F80A4992A3ADC954792C525AE70A1E4D6AD9816CC044FEFDF01FE3FDE907802504B0304140006080800B7512B4B13CBA843F800000096010000
311
3700000044383838443935362D343144362D344345322D383445422D3633364343423835393046452F4173736574446174612F636F72652E786D6C8550CB6EC32010FC156BEFD8E038258930919BBA5FD0536F08888B1283C5A3EAE71762576A4F3DED6A76667677D8F96BBE579FDA07E36C0FA4C650692B9D3276EA21C52B
311
3A4075E6CC3B177FD1A0B262D63D1418389BBC4BCB064967A3B605B54EE90D1421E80895BCE7A687203FF42C6A916266845BBD08791393AE49BDF2384BC9A84D6A54763357A33DF0714FBB76EC281AE978441D79A2E8405E2FB93B3EEF870B1E07825953C49C4533FF6C975E8BA815F016138AF01111F246F089EC4E1D7D67
311
4D617216A2CF3F6F4BCB77C08772F58B888235EBF48F6B5AD4FFAEC9D8B86B37D7551180937CE463C0595352CAE51161AE2551FE0D504B0304140006080800B7512B4B45AA9F01F20000008E0100006800000044383838443935362D343144362D344345322D383445422D3633364343423835393046452F5265736F757263
311
65732F32344634443735382D314443452D344130422D413736442D3845384130303843453632302F7468756D626E61696C2F302F636F72652E786D6C8550CB6EC32010FC156BEFD8E038258E30511AB95FD0536F0888831283C5A3EAE71762576A4F3DED6A76667677D8E96B7E549FDA07E3EC00A4C650692B9D32761A20C5
311
2B3A4075E2CC3B177FD1A0B262D6031418389BBC4BCB064967A3B605B54EE90D1421E808957CE46680206F7A16B5483133C2BD5E84BC8B49D7A45E799CA564D426352ABB99ABD11EF8B8A75D3B76148D74EC51475E283A90B74BEEFAD7FDF982C733C1AC2962CEA2997FB64BAF45D40A788B0945B84784BC137C24BB63473F
311
5853989C85E8F3CFDBD2F21DF0ECB5A27FDCD2A2FE774BC6C65DBBB9AD8A009CE4E39E03CE9A924E2ECFE8722D49F26F504B0304140006080800B7512B4B73059941F9000000960100006600000044383838443935362D343144362D344345322D383445422D3633364343423835393046452F5265736F75726365732F3234
311
4634443735382D314443452D344130422D413736442D3845384130303843453632302F7468756D626E61696C2F636F72652E786D6C8550416EC32010FC8AB5776C709C1247982889DC17F4D41B05E2A0D86019A8FAFC42EC4AEDA9A75DCDCECCEE0E3B7D4D63F1A9176F9CED8094180A6DA553C60E1DC4704307284E9C2DCE
311
855F3428AC9874071906CE86C5C57983A4B341DB8C5AA7F4060AEF7580428EA9E9C0CBBB9E442962480CFF2867211F62D02529571E67311AB5498D4A6EE666F402BCDFD3A6EE1B8A7ADAB7A8212F141DC8EB3575ED657FBEE2FE4C30ABB298B360A69FED72D1226805BCC68422DC2242DE083E92DDB1A1EFACCA4CCE7C58D2
311
CFDBD2FC1DF0708FD387156664D53AFDE31A67F5BF6B3436ECEACD755578E0241DF91C7056E594527946986A4E947F03504B0304140006080800B7512B4B0E7F898C0D010000B10100005C00000044383838443935362D343144362D344345322D383445422D3633364343423835393046452F5265736F75726365732F3234
311
4634443735382D314443452D344130422D413736442D3845384130303843453632302F636F72652E786D6C85904D6EC3201085AF62B1C70607073BC2448E434ED05577C826294A0C113F558F5F885DA95D7535A3C77B7C33C38E5FCBA3F854CE6B6B7A804B040A65263B6B73EB410C57D882E2C899B336FCB281C2C845F520
311
CB80B39BB3F1B94993354199AC1A3BAB4D94DEAB008AE9919A1EF8E9432DB294312487BF974F39DDE54D95B85C7D9CC5A8E72DAAE7F49BBE6AE500170D25B520140A2A3A48F09EC2165FC6D475A7661891183062550E7316F4F2439F9C9241CD80D70853883A88F11B4607BC3B10FACEAAECE4CC079776DEA079BB64271772
311
A64D0BF17914900CE80407BA3FC356B40342ED28F675C2ADC13FC0F89CFF07466DC2AEDE806BC2038ED3FCAF07CEAA7CC0545ED74D351F9B7F03504B0304140006080800B7512B4B8797CF1EF9000000960100003700000044383838443935362D343144362D344345322D383445422D3633364343423835393046452F5265
311
736F75726365732F636F72652E786D6C8550CB6E833010FC15B4770326A484C8384A23FA01554FBD59F6865A0936F2A3EAE7D70E546A4F3DED6A76667677D8E96BBE179FE8BCB666005AD650A0915669330D10C3951CA03871E6AC0DBF68501831E3001906CE2667E3B241D29A8026A3C62ADC40E13D0628E43D350378F981
311
B328450C89E16FE522E44D4C58D272E57116A3569B54ABE4A6AF1A1DF071DFB5CDD87664ECC69EB4F4A92307FA72495DFFBC3F5FEAF14C6B5665316741CF3FDBA5431150016F6ADA91BA2794BED1FA4877C7B67B67556672E6834B3F6F4BF377C05FD1DBE8247A56ADD33FAE7151FFBB466DC2AED95C5785074ED3918F0167
311
554E29954784A9E644F937504B0304140006080800B7512B4B3F1315D1F6000000940100003500000044383838443935362D343144362D344345322D383445422D3633364343423835393046452F536368656D61732F636F72652E786D6C8550CB6EC32010FC156BEFD8E038258930511AB93FD09E7A43405C94182C1E553F
311
BF60BB527BEA6957B333B3BBC3CE5FD3A3FAD43E18677B2035864A5BE994B1630F29DED001AA3367DEB9F88B06951593EEA1C0C0D9E85D9A37483A1BB52DA8754A6FA0084147A8E423373D04F9A127518B143323DCEB59C8BB18754DEA95C7594A466D52A3B29BB919ED810F7BDAB54347D1408723EAC8134507F272CDDDF1
311
797FB9E2E142306B8A98B368A69FEDD26B11B502DE6242113E2242DE083E91DDA9A3EFAC294CCE42F4F9E76D69F90EF8EB726760CD3AFBE39966F5BF673236EEDACD735504E0249FB80C386B4A46B92C01E65AF2E4DF504B0304140006080800B7512B4BFD7A22BE01010000D80100002D00000044383838443935362D3431
311
44362D344345322D383445422D3633364343423835393046452F636F72652E786D6C9591D16E832014865F85708F8A5A8B0DD2A4EA9E6057BB63726A492B1881658F3F9C2EE9EEB61B203FFF77E03F879F3FA707FA80C5696B1A4C930C23308355DA8C0D0EFE4A184667C1176BFD930D23232768F02A63C1C7C5867997066B
311
3C98553556C12E4AE7C063343CE2A1C16EB8C12413197C74B87B32CBE12E474868B2F904F77AFA418705A40785459ED123C96A42E92BCD4EB43895C7379EAE4EC18336BEC8F7C7607A0785ECEC63A488519E6ED7D116B4DA4D5AC54FEAAB86058B8E31D6D5878A94B48B4BDBE78495FD855445D5B61776A8B3973E1689B0E0
311
CE2FB1357B91B5097FC537F057B430AB7F46DB0887C553A874EDB3E0E9F710E2BECE447C01504B0304140006080800B7512B4BA0439B8407010000B201000008000000636F72652E786D6C8D50416E833010FC8AB5770326A484C8384A23FA829E7A73B143AD808DB089DADF771D5CA9BDF5B4AB99D99DD9E5A7CF692477BD
311
78E36C0B2C2B8068DB3B65ECD0C21AAEF400E424F8E25CF8250362E5A45B8830083E2C6E9D13D43B1BB48DA8754A27507AAF03907EC4A605DF7FE84966720DA8F0B76C96FD4D0E3A63D9A6133C98E967B45FB40C5A81280B56D3A2A18CBDB2E2C876C7AA7EE379540ABEAE46252BA3D0DD5C8D5E4074FBBA2ABBAAA65DDD35
311
B4624F353DB0970B76CDF3FE7C29BA332B781E8705F761C19BD312CC198897F7E8CBF38D12FCDDB93109309422CE8E5F20704324FE845E67F58FD0C6865D99166E131E04C3400F028DE307B13CDE8B357E5B7C03504B01021400140006080800B7512B4B3BDC273035010000A80100004F0000000000000000000000000000
311
00000044383838443935362D343144362D344345322D383445422D3633364343423835393046452F4173736574446174612F446566696E6974696F6E4974657261746F7250726F706572746965732E62696E504B01021400140006080800B7512B4BE662CA7E27010000300200004500000000000000000000000000A20100
311
0044383838443935362D343144362D344345322D383445422D3633364343423835393046452F4173736574446174612F496E7374616E636550726F706572746965732E62696E504B01021400140006080800B7512B4B88E57597CD3F0000904100006B000000000000000000000000002C03000044383838443935362D3431
311
44362D344345322D383445422D3633364343423835393046452F5265736F75726365732F32344634443735382D314443452D344130422D413736442D3845384130303843453632302F7468756D626E61696C2F302F67656E657269635F706E67504B01021400140006080800B7512B4B28BB58AF800100009E0500003D0000
311
00000000000000000000008243000044383838443935362D343144362D344345322D383445422D3633364343423835393046452F536368656D61732F436F6D6D6F6E536368656D612E786D6C504B01021400140006080800B7512B4B2CCEBD668A040000E01200003E000000000000000000000000005D4500004438383844
311
3935362D343144362D344345322D383445422D3633364343423835393046452F536368656D61732F47656E65726963536368656D612E786D6C504B01021400140006080800B7512B4B6180134D5F0100006B0300004500000000000000000000000000434A000044383838443935362D343144362D344345322D383445422D
311
3633364343423835393046452F536368656D61732F52656E6465724D6174657269616C536368656D612E786D6C504B01021400140006080800B7512B4BFF5C515E51000000570000004700000000000000000000000000054C000044383838443935362D343144362D344345322D383445422D363336434342383539304645
311
2F4173736574446174612F41737365745461626C654F66436F6E74656E74732E62696E504B01021400140006080800B7512B4BF865834058000000680000004500000000000000000000000000BB4C000044383838443935362D343144362D344345322D383445422D3633364343423835393046452F417373657444617461
311
2F53747265616D56657273696F6E5461626C652E696E66504B01021400140006080800B7512B4BD53E836037010000A20400003600000000000000000000000000764D000044383838443935362D343144362D344345322D383445422D3633364343423835393046452F4173736574446174612F636E782E786D6C504B0102
311
1400140006080800B7512B4B543546D9E6000000600100006700000000000000000000000000014F000044383838443935362D343144362D344345322D383445422D3633364343423835393046452F5265736F75726365732F32344634443735382D314443452D344130422D413736442D3845384130303843453632302F74
311
68756D626E61696C2F302F636E782E786D6C504B01021400140006080800B7512B4BA233C2345D0000008000000065000000000000000000000000006C50000044383838443935362D343144362D344345322D383445422D3633364343423835393046452F5265736F75726365732F32344634443735382D314443452D3441
311
30422D413736442D3845384130303843453632302F7468756D626E61696C2F636E782E786D6C504B01021400140006080800B7512B4BBE89762363000000880000005B000000000000000000000000004C51000044383838443935362D343144362D344345322D383445422D3633364343423835393046452F5265736F7572
311
6365732F32344634443735382D314443452D344130422D413736442D3845384130303843453632302F636E782E786D6C504B01021400140006080800B7512B4B473CAF397E000000A300000036000000000000000000000000002852000044383838443935362D343144362D344345322D383445422D363336434342383539
311
3046452F5265736F75726365732F636E782E786D6C504B01021400140006080800B7512B4BE5F6860E0B010000550300003400000000000000000000000000FA52000044383838443935362D343144362D344345322D383445422D3633364343423835393046452F536368656D61732F636E782E786D6C504B010214001400
311
06080800B7512B4BE3603EBE7A000000C20000002C000000000000000000000000005754000044383838443935362D343144362D344345322D383445422D3633364343423835393046452F636E782E786D6C504B01021400140006080800B7512B4B8F0ED5467F000000A300000007000000000000000000000000001B5500
311
00636E782E786D6C504B01021400140006080800B7512B4BCA1DF9C9A9000000730100001300000000000000000000000000BF5500005B436F6E74656E745F54797065735D2E786D6C504B01021400140006080800B7512B4B3DEE336E64000000790000001B00000000000000000000000000995600006175746F6465736B
311
2D64657369676E2D7061636B6167652E786D6C504B01021400140006080800B7512B4B13CBA843F80000009601000037000000000000000000000000003657000044383838443935362D343144362D344345322D383445422D3633364343423835393046452F4173736574446174612F636F72652E786D6C504B0102140014
311
0006080800B7512B4B45AA9F01F20000008E01000068000000000000000000000000008358000044383838443935362D343144362D344345322D383445422D3633364343423835393046452F5265736F75726365732F32344634443735382D314443452D344130422D413736442D3845384130303843453632302F7468756D
311
626E61696C2F302F636F72652E786D6C504B01021400140006080800B7512B4B73059941F9000000960100006600000000000000000000000000FB59000044383838443935362D343144362D344345322D383445422D3633364343423835393046452F5265736F75726365732F32344634443735382D314443452D34413042
311
2D413736442D3845384130303843453632302F7468756D626E61696C2F636F72652E786D6C504B01021400140006080800B7512B4B0E7F898C0D010000B10100005C00000000000000000000000000785B000044383838443935362D343144362D344345322D383445422D3633364343423835393046452F5265736F757263
311
65732F32344634443735382D314443452D344130422D413736442D3845384130303843453632302F636F72652E786D6C504B01021400140006080800B7512B4B8797CF1EF9000000960100003700000000000000000000000000FF5C000044383838443935362D343144362D344345322D383445422D363336434342383539
311
3046452F5265736F75726365732F636F72652E786D6C504B01021400140006080800B7512B4B3F1315D1F60000009401000035000000000000000000000000004D5E000044383838443935362D343144362D344345322D383445422D3633364343423835393046452F536368656D61732F636F72652E786D6C504B01021400
311
140006080800B7512B4BFD7A22BE01010000D80100002D00000000000000000000000000965F000044383838443935362D343144362D344345322D383445422D3633364343423835393046452F636F72652E786D6C504B01021400140006080800B7512B4BA0439B8407010000B20100000800000000000000000000000000
311
E2600000636F72652E786D6C504B0506000000001A001A00210B00000F6200000000
310
504B0304140006080800B7512B4B000000000000000000000000370000006662782F35374131373137352D423641432D343144302D424236302D4435324332453841304343432F617474726962757465732E62696E504B0304140006080800B7512B4B000000000000000000000000350000006662782F3537413137313735
310
2D423641432D343144302D424236302D4435324332453841304343432F76657274696365732E62696E504B0304140006080800B7512B4BF270F1330600000004000000360000006662782F35374131373137352D423641432D343144302D424236302D4435324332453841304343432F747269616E676C65732E62696E6366
310
60600000504B0304140006080800B7512B4B88E57597CD3F000090410000420000006662782F35374131373137352D423641432D343144302D424236302D4435324332453841304343432F7265736F75726365732F322F305F67656E657269632E706E67355B773CD4FF1FBF73E71C0E67EF7576C9DEF3EC995D46C6A1EC50
310
46649CBDF79E192942562825CE965D8A868C2842C8DE9FDFD1F7E7F138F7078FCF6B3F5FCFD7EBFDFEC41B196891913091804020321D6D7513FC77D8C5070EC3FFEE51B21F068154CC75D455CC028A3EA68992803810109FDDE5D5CEC5521B28A1B422BF80741695D5B529DA1C2D058AD2388BDA9F476F7C2CADC939304173
310
DBF48A452BF8A700C0C70C3D121C1AA15A5270C22E2B9E28763651F7DA0D12CE11077B2ECD0D560B5E3DE2368B1E65C5E1C87384A4CC5F2D9FB8BE39E9B77C753783A37998F5CEF1B4FEE553463245C9712270880DF339E0B882A6BA713D865F6F384C842D440934EF264F4A304F8DE4EEFA1E2BF5E2D91F5ADD9613D6E31D
310
DB33ED31DB1D7916CAF091286EA3D31B9CFECB78BB0060245B943C4C040119FF780A74DD308BA9D028678674EB5504ECF284EE814DAED07440BAF649BE4B55DA2890F4D73E2D489A59EE54FDB0A85B59F2F52C4858A02705C4815A792B0C4A996A2023ECB195073E115E3E3647F64243A8338F2000BCB58DA5692C7E7C3D41
310
3F963FEDF3CF00FBB0F831A9D51360FECA43819F527B89FA260EB63C5DA676830AA3626A3693B23F1A17A0DFFCE3EE164E31B5365EDF0C89EF64D8E38AB0BA9A1117D7C3A0EC44F44F4023095E80BA610DE336D0F99593A88BFC5306E72DF98F7FD132ED95878DF2964EA7E43071359FD83B2BDF9C6B5BDF768F0F3C0FC351
310
199526F53D9460A34511F75D1B63E488178569472C91A94497807A3FD4A390C6558F26D416365C3656DE6E769DA9D8FC73774E1709812842DD8EF96AED1960F79D21B395CDDFE6F92CB4EB962A4668C76990E2EF29798C8941D67DA50F4A5F947872460F1F6FDB794E8A29FD7AC0C0D6E0714339CE258FB17AE8535221E346
310
4A10F29A0BE5EEECEFC5675926A89F49EB14E5711894F6586DB5754EB4D5DA9C6437EBA57DB97A24F8B8A8DB295FFD73266CF57E82694DF5166DDF93573AFE9C9C5EB05F8FEF8E89E0A8917B0B3724DB7BEBB53252581EFC3E38166BA131A3A5B42FE2AD00A769BBFA4458D2DE7822F8C4F63D0B8E21B285AE13325F3410A4
310
35C648C9D91FDEB109E73CEDA7BC796961AF79175E1A3CE4C5E8B0D009B0C9E29EFD98BC8E97554E3D8D838424E270F7685226E5AC268E021EDE3522D583E8F20C0BDE2959EF5BBFEEDAB32FE9A3ED0E39F211A86AA9DEBFC68182EDED132AB8BB794442D2D7EA9F4D8BFF52BC4D55BB165124EE90A42D101E67BBBB292FFB
310
4F66DE5BF2300E44546757DA7CEF8932BFC9F92A0707953491A55C5A5ACEDABD9FA1AEA01BAC3DC5A24E22E7C47213493996EFBC369D086ED9397C9BA6C7F9855C7BD5E15BFC8C53DB3D2A4C5901A57ACD2FBDF4D1676E95338B2C2BCE65FDA4C64F5FEFDC7D9CA5AA1FCF11E193F2FDABF0F4916BF13FB916A224380E6462
310
A9815F2300DC49CC4DF8D055CEF76462F4B7A7ACA7365C2707891370BC1D0AA6203C44CCAB47084FEC057F27FFCD57F89B8B9852459798A675C66BD7CE572CAF71FF7E6D7ECF7BF62CAB7B3F1107DCD04DC55A3F9961700286141C94A4F771FEB2BCDA2DDEE0CB0BAE402FF1DB0100F8E475DFFFC074DDB4498AB7D186A765
310
4DDB1CB680D703D47CEB4E72F8CB13D86A4AA68116E26387B93FD6738779B34FEDB8E517EDF2BAF28D9BE93A1D3A164320E07D42E514725C29515FF361754213EDE06B079A2E99EB1CA82A02019EADEEB87B9AF005BD04BBCECB14AACD6B24EFBE482194A97DD32400685FF1FEF1544D1B14EFB1E7F08E6D2CD2AF52DE757F
310
35F5E62332EE88EA26417AD5C3E0E319D68F25414E6D672BD4522B278C57D18F0113921C71D96527E091F00CEB15AE23D24667369BD3CEFA10C7549D930890BA4366F4EBC55F01F746109F98ABCDD5A3EE06619C6AD78AB33E48E4C9BD21BF7478B385EC05C4F8987E2C1BFA0A60EBEDAA0AE0B015C2720ECE180FB6F2DEFB
310
EB822D96338C9B63822183BBF52FB664A7AE57003AABCE512BF77E7E31BDA2E739AC4C131657DDFE5225E900FB56CC01CDE808FA4A9C9DA16AC679656BB64796283D89812B8F91136AE18EE5EBBAF47A73BE3C153EB5D4CD491B4BFB4FE690A4CF9ABA08C0D8AA64220C438C96EA6CA80B58FE5761E697B3A292EB9FBDA502
310
FA863E49FE694ADDFFF9D62C520BDD1A22014147A0903A05B9B729F54272EF83931FEEC057BFF8C8055C279EAC5C0011804828734024F6CFA319C9CC6867C727184465CD9BB7ED386AFFD96B294A85E3802FAE47244602D8273615952B98C4F23F7EAE4463D9D638EEE374A20959E0FE519C4CFB0FBFE5DD80C2AA3F9DB961
310
D1BDE57E67C9BB47B77FDD74EE3094F5DBBE3EBC1FBDB7393F5116263009E2EFE1AF9A221B2AE234C902BF70E9F280ED23E73908361565964333A3F01D0B006AF32FB21AA1316744B489D5A198E85299241735BE559675130955C902A8ED761FC0DBE337A9F91919AF5CE32AF902ADF9AB2615E00E8A94586BA1A90839B618
310
32FF1BFB76D2EFADE6DB1BA04CCAD3DA649E7E2A0219F592E22F2AD54847EEA8E42271011E9074F8F3DD9FBA6CDF88FFC9FC7E811AD1CA8F4557CE4AFC7BBEDCF0114A48689F20A584520C74DA8127124B767E2FB91A6B186246727BE63C9445BAE02088D58B8EFDC0F1072407CD9B89A13F6303B4A928F593AD489B58E686
310
9325790ADC406036C591729FE14021F94B7796BB11848D463536A092A26F077F94639F7CEEE2A724C66EC885F4A24F8B8A0AC321F8FD149BA529460FAA34E4663C02D41FDF80BCA222D42F0ABFF8490F4FA74C673807C2051D8E467B47B616072860069A9A303ABA9B319D58404461401B0A0F9BE5E1E151C14BC33B32ABE0
310
3DDE91708DFAEB15E7C0D593C86BB7D7EC17BE56E57975F077BFD5525F3A1A361D584A75E08CF29FC7B44B2B3085014F3A5A14517377C3F6B8F37E59514C3B12F8AACDEDDA4DFC49BE5710101534CD6FB6DE15B50F11A09472AABA727F0C49D9CB906B158030065F48EB3625E010CEC1D511D0053474B11E6A4F01C0D6EF1B
310
ED3A944FDEC70E0DDCDC756C86545910E0DAE3BE3AA9A404574C2995CD5CAF9549226BC94B4F4F0F5F9086F418F6B32346464610D8BC7391D3C3A3CCF04CFC1FB2A3A3170E369511868F14EEA4E5E438CC73DB1F3248AA94B6B2FF33B222FF3D1E7BF146CAD229770158063BCE4F5391964DF62F7E52A7BE0EEA829C9E13C4
310
C147D6F93FE59E111DAB5E4594D6F3CD1AD375EE039930EFE5AF2BB2D41C83C7DABD8C659BAFBE8FAB392CA634F3D15C1D945DB4588D2B0824A4EC928AAC565557CA2F0DAA588CA5BE30B3A8004F7BF005E96CBF891D7F18112A3619FDF530DC8AA64954258E1811789B5189B49B4EB53F5F89F7D37523894F3EB57B373763
310
C91E502F52CC99EB7BDDF933FC324C4FFC2561DFFA7339FAFDD0A4BFBE6D3A8FF9ED1FC49898139864602458968913181918F719CCF5A68B2EE9C1FF050E34E63107003B8120FA982C21B30A874E4F5E4B38D5A8290C4B8D9BE48A0BE31EA995BDC37AC6DE90BA17D259DEF53605D55922FEB1855D915B659FBEB350EE0DFB
310
2F9F766E1C84CC8964B75D08667445EAB966015F63A18A9E0A325C1B3DC628C0D3CB60F767FA93CC65F25458BD23C3B312716E5F40E5858AC06EBA9AB14F95DB99147B832069201541D09A0D856E12C629CF32683760EE855537D1901988D5EBC156676C7DD51D7207CF3267AF1D76C2AD867315E44618015313A98B19941C
310
696FED3461CAA9B5415F918556D7802EDACEFD6B2E45853A9735DFC9DBF7E440F9319F8B6805A973BCCDC76C069A9144E51F187EDCC12FC31B5DEAAF0A76137199B106EC84ADA6B6EE697D4E6A96E007417F4E880E8B1E89B4BCE9D81EF611E2ED8F0C1A6C25F620FAFAAB656A7C42D464880E8AFAB0E0FC8EA38CA9A8AEEA
310
EE3E4648BA4680270A89743CDD3E6C6CBF34B7B640EFA285ABC7EA0A1E28F3CC963D114A80123EE66D0AF7D5380EB41909B605AB4765B709B808590458157E69BA1378FEC4B48CAF6A730E3BE3C5EF2DD1A5EAF94B1DDE50CEB55DDFD7EE9A16747FA4B223359FB1FCC69E1194892BABB93A1D5C4E807AC0EA2E30180811E7
310
7A2291F6E7F7FAA5E0F60215BC6024E48DE436C511F0628B8CA189982D4D83CCA17D305A7E923C37941CFDFDCD93ACAF735EF5F0E61BBD3E6C41A59B242790D3A3BAC7064DCD89AA2E37214EC839820949D5CAA31E240D2948E48F690298974A96BA9A8432BC90F5071D6537C9666EA4564796B7AFFFA548077BEEA75F6308
310
3435074BA182F3699557397F71548383FDA8CA34D99B981E72835ECDA5DDDC151315173D05A21F651AAF8524E88209E2E7A737ED1045800CE3390050BCFB8BE588DF111617874C62575039CA588EEFDEFEFE319B739DE2EDC147092A262611E159650E787917885EF08F1F51B8F2D8A71D60B58B190FEF9541A1BE94BC19FE
310
A50784DA1419FE4B0FB51B8D36B5FF8E1286FD8AF42B91E59A5F1CC4D60174E764045FD8C57B18209B217F89A62252BD20BE0E63E12B8E8F029FE19E0E8D0870F58721A557082250D5424F7909369376E41666C0EE77CD87CB283F661D5FB6D0DA023CB67320A20DC7BE661E9E1BFE5463085C557DA1FF9BE835733766C3D1
310
39F2CF9E2208873AD0EB4814DE9E6BF2CAF81614D4D43906ED1C05A3265CABBFE192770FC2F64F940CB6B17B5F166F133C9AEEAD2641807C3E69515171DD74C4A85311513D6EC9530B3B601B6BA3EBFF3B5C3D2F7D69765141E345F75433953D013ADDF8F6AA7DC3F4A7563FE5C7D367937E2900D7EAD0F9FC9A4A1A9B5BDF
310
1FEF08532660C01C5D6DE22199AA774383E306DAB87E301ABB7D213887F9869D4942D0D71E94B27EDF216A318BD488D45DF84529EF575AF3C3938C0AAA0215B01994153E2054A0B894DA5C784980633AAD48576957CF4AEAEAFADC7C587368551C73DBE1E57C58AC713303A8BFC258BD04B51724459FF9E24C03A81E0E0679
310
CEB9B348C0DC998FEB9C6D6EFA77D247CC8F92D3848599ED89A23218D0636465AD1CEEB7DC140D7426F83491C4E8E8281C2FB35240918FFECE880CA2A42D70E8B20B34DF5221C7DB0CF90ECCB9C745B37A47E9B716FF7A97B7A252C1F3814DC7B1E1A7F72B8751D524EF7CAE45B0C73B3BE7D08ED39781B380DDFC9AA4A474
310
9C9493DB5BAD07A6EA6C092FBD0E85DB004DF06B8C9D3089C5320187E4CE1846158C7EA7DDAE8AD9AFFF21AA3A1026BB06A259845E8232DEE62811A4DA9CEAB3A4887320B76E2AE5615EAB7BDF738CBDD01F1E64064BC13D9EC53576751CA8CACD58B3CEB0E6CA585BD089B2A59B9FC101403387AADBDBE70586B93D64BF3A
310
D4453EF9C3B6A93817E8346991798601344F79A83C51F3D50F7BF2683A3605F51A72449489E0EE6169C749C60B1035651103AEE24D24E51A759C840DD3FC6504DA6FE107510E447B43461C79D22970B75DE5E1BD3007D1AFC619A4A4A69B5626AF5E9B8374E20677F77E2F8E73DF868E8BEC7EBA7B6A75EEF7205E1AB9486C
310
B642741D6E03FF13FCCEDB1C4AC129886268B01CDF4B124AF797CF784F3C6DEC97A17D4B558070A0F1C04DA4FF9BDBF34159AEFE958479824B3F58EBD1E19088A2AFDE501B6F2052368A3FD0E650A179EFAB1561E1D27527077136E652676C3670F42DCB3352F48F6BC86D2C3B0051727E41A0A4DC6CE2BE9D47F5CAA2935A
310
3C0539AF080665997194ABECD723B08129CC5B6B21D2E7D54CD4D12610E7E9FB8306771A89576C7A982002775ED44F3F744CF21EEBB27A631671D921938AAEE3EB0D19CD1E083727F607823E817BF599DCED5394E37EEBC2E88782E638920CA641EF74D4CDFCDEF06F4278ECB18E31E7E9876F2D783C8BF429C75395F57E98
310
C2B495A3DA077EB3AC3C158608B6B57FE3EA48484D9A480096FCEE0DE880950E7E5A5714131C5C41AAA29FD19AE81AC145FA1B9E85C7169A5AB837B213493DF7E9AA4B5FBF9CDEB36EBD21EF1181B7CF7366AB2A951D01E37AF4EB835D1BE8C117CFBE7625D2EBCDB0B20C5A4B45CED0BCDE3EE8DA9DA78C2E21DEAAFFD119
310
7E463C33CC6A80FB785669B856EFF7A8CCCA2841B5A5369173320B1170C368B2748D81062EA0296E5E2D95D7667A4A46D98A6FF475C76AAB0A8C8D45E226FAFC9FE0133EA9F60111F99CA81ACE03A1D14C89E8B0D69079C91464FA1D99E651D0EAF606F345C42A8A1AA9BA391031582B96D5B4176A77AADB01F12FD298A75D
310
EEBB2C82F0B8650E880722F8DDD90C56A7A058E5FDEF1AC93545BA27367C76F5D8F9690CB6F8DAE141EDD7971F0FB548A2AE435F224D6E5954CA155512F7332029D5A1230854B79F258EC5FFDB09F5F6343A8EB193229B7F7E79B3E48F8E183860B38C8269D1B53738FF1E0BACF6AADA6D4869E9DE708E79B5DADCC09B1BC7
310
6F649731CFAF59A83FD8BAE4C749D66FA87A3810D4D62FFE826FA400C0F325D2BC0F3CA35F5847B82A2ACC7961745C823E4D863D54460AF792CE6F79B5C7A33B25C3AEA6CDE15A919B6367D781E9D44F61BF828672594A3E1D9EDD6DF179A81F27EAC05B936575D73E05C209DDD2115CFB705DF9BBF3C911589B3640735E9E
310
618FC9C36A7326C82B2205E244C55D56FDB9D5DC93CE958D4BF8174D2B3DA54CB3C09F2C2A6DFF73D23B2197355761AD421EC581284A7EF8DE2CE3497C0C804D49B41DFD6A7360844E5BEFFB495CFCDB97A4595911CDBA623274CE852B5E278AF0BEB1770E9D37CD977B2766A7DED0E94B840E1E95E8C77DE5CB6354AF7871
310
427C28ADBEEF7BA0A28E19DE9ACD75F379FE373EAE6DDDAE3834692F9C2B03B4FCA8FCA9ABE8EEEBEBB725B88A7C90941E850682CA04061A7DF0CE82ED49BFAFFD42C309818FAE14755CAAE78B0F73243ECCCAD7DF58FCB9CDFAE7A4D3E6671A613639130D056C8383C8F4FCF4808C331E544DD26E4755D09EA05253B3049A
310
1E32587CC25D72E073E2CD96D04A71BBCB0038FEC3F53D254199C3CDC67CD66640269431860225392B2CB3ECD0B4498AAE78BA1994246AE1EE78F2EDFB79F6C6CB6B5E279C4D373FBC21CB2698C9ACBBEB6A4BB6B39E16AB0E421CCBFC7654D81ED86022F9BB522146F9F4772E2D0E4FA70120C95A85A417BF5078B232F475
310
4363EB1750B2AC2148EB46B1EA72AD9B4D23ADCBC589D70106C3EC2ABEEED84DFE28E718C6C83502C28E9FDD3B09DA0A6F6F7B72B706A31C9E2A331EE70DA56A083D2177BFD63C55B11D8D949FAFCF90B23A1E24B9B5018B9A17E99F2890EC302F330FE7936E2C23F0D237EC8916F5166AB84B62A21BB0B950146962D754F9
310
2CC2C8877BED8FC7B7B25726DD19545392570B3A2C66B58F027BEF412E552D12A588C4A3CC5C3193FCB3485EFFF700D0B9EEC077754A33DC1FB9E25AF814628F91DDFECB667D3F7690803F38D13F8AE39353523BB08FC6760144AFA2CE28236F65EDBB3D5F59A57D612B99E3D7E5F8A851666BF9B5A6658EFC96EEB37A378A
310
BB0EB3FDDF1303AF32C41BD1C8560745D7BD81066B0D6313359CF488563D3BA3F8E2185D1FAA3EBA1397C9D0E3DD232180A4DCADB6AF25DB3AC3CC26589C8239E66E81547BC7E2F328F9884764CA37EB5DBE390DFC03A5246B456A7C3684C4377D0EEF9A350680FA9A077E8B2957B489E09AB1AD41316944C2254B5984830F
310
691C93CAA767EECF976FA5647538830B5E63236A6F0365C1E0F3E327F24FE35EDDBD7360B0F7374837409F7A6311BECC12B7026D4FA1AE204FA3F5FE904B1F420C7A9044AE58E403E7C4848E7DA25DC9EDAC79DD756FAA26B9EA83ACE8A214A2612A22AFA19DAE7DBAC5F8CDE1292A485F98DAC731A29FE01A3966E96BCB9F
310
B5A4C8830E1B9AF0C54B87FBE221A097036E5D28D1F869F810C06A9BB0AC0612F69AEBAF893C6E7AD59460208BAB3A6B09CA4F6BDDAB8CF0D1F84B72487498395A70DCD754796E271099A567A55CF242BBED64696378BB6CF25EF0FCDB589F3A82F1116D010A9AB9FA4358809EE0C973A2B4229BAA876A70B03AB49CBA7FBE
310
71DB1832FFD32F9BF2C8E98075CACAFB36921235D0F552B6A67E94E094097A5D7DF681B40623DA535ADA7A9AD8E9A62407D7C9A5AE51D62A17A83A23728DE86BB56115804D3F2675F2C6B87541A0FC497BF0CA86420F558C9859EBE9FAD62747E323E3AADC03FDCDDFE7407B09DA90B44E3185723C5381EAEF589765E2F7A0
310
99BA46695BAD60CEF3491B8A171F5F56444F7CE9455312C3498C74173AEA0214EC029833B34B650CBB5A5508D5091665309642791708ECF27CF11DB3D797D6CFE474453BD4BFADB768094B2147814D81C7CBAF8228DCAF5564B5891F5EF6A860EB2E323CB82AB868D8EA048880D63B0DE5341F1B3D53297B928A11E15F25E5
310
148990F710747C3509ED14909C552EBE3973246FCE55D00564D8310BC3EBC5085D08D806799B77D6C57FDF5E55837F9E934F09C03C729271B64F12D0A9F9E938107CAF7BF1EC8CF1BB9B42363D33070F4CACB425E605DDB0A34A12BB936DE286B9887A4E2E558F0886498BFF49C311D96C277CF6A9FC0D75AD0ECC5226D7E0
310
E3572012E56D7FDE4410CEC7A6D0F997F225A2055B8B92E3956E875AE4993CB3D4C9063AF98FD45E1BAB165640A43439A2C9181A7C355B297C0A0CCFFAE19B6FA3C2BA238A885FBC98B8F6DAF4B94B97304878DF4D8BFF6A4AEDF79E90ED4E68F00CD7299F4E0D83E35601AF0CBEF18C1E870E74758FA91F5131075004DB3C
310
FCF09AE1DABC11957FD9808C92E8A678CE9DBE40DDA0E0D1D505AAFBCBA208232BFB6FB3704E8985E61ADE53DE74152F5C7DE74B1DEDCD37DC3E8FB30D7EBA8B9EFFC3606BF90B8D438279CB7709FC7C00D327F41817EEA71CD9E49FE9C8C9A81C70915D9F0F15958EC5AA4C3BBFAF46986B90F188BDB24B89DE3C6F29EC3E
310
6F66D84856EE96A35E657CA41B41EFD8DBFA16AD6E91439EA92B40B21C053249F51AE50EB0B24C770FFAF40DF12C8436366819C48E36547D4E7B72FE2BBF10828583057814A668BDF183F6B2E58DFB151103E56303E63D00F39C27C4661605DB644D19175D02E3F0241E8FC3458D17AAAADB117CE9EEA690D0DB01E634878C
310
04C2C9310B69FCAB831151E3AD293BEF6E46B0ABCECB50F5939B39C613D41E81FAE8D34CAE3C4566B761D37185FE864AC32FCB71AEF39DAA5BAB88609BB980CD2F07A8F941653B529567726E2B2A58D079DD57E1E5E31426CF184A04D7B03B985F276D47406AF276FE32E3328BA866EB1FD39BEF57863A317634AA5FE46740
310
9B3873F5069EF0D71AF00AD189D17BA1974ECDB2D623E9E14086386A6AAB5807825C37B015BFE892AFD154920EC437EB945D958E18622E1E0FE2FA06557CE4BB9BBD05A2D40E774DA2B65473791E314B7D6C886820B2FCFE4AA272B3B8B15E7344A145E8AF919B5454D89D36D413E87211186BF6F645E5EC94DCCE8E1C7990
310
22E4EC9BC86D7A0F2AFB1FC4B2CE48F84B3F49ECE65BAD24CADCC07EFF39AB06BE9E6B27A059938EA7208838455383DDBCFCD967DDE4650EF92A14FF933C975DB20BD7FEEBC4487576485963D757D16340D9599FEB362F775F38CA4185A86F74B629C81B133644A3B18FD056E997E0734F9BE26D11C0AAFC669E2AC9FC41D2
310
81F8B2E1C35AE27BCE05F3DA295488096688719D974DF1B5D182DB7792288697F8763CFB43562C1CDEE11C4AABD5C22B6E33F6F389CFC3477C5919DC0D533F8A7A1846B7ADB60ABDC26C43D0CFC8910B7C15EE22675BD02702ED39DB77A87A192CA7A543E6205B979B9F5A6B512A3CA799E198B2D5797C0AF8D1D872CA455D
310
4D431A7879D4DD76110B5FF7F4176B54477A9EB5E4A5D11214FDA585F0382751D8E2582BA5D2075053298FEB8F1537304E32CB22C2E2B693DC0A760B1DFCA751BDC445AFDCBB12820ED85F6D5298933C7EF1211E9E057684056CDA3FEF3BB6052355E162DF27C59E965A8DDB7F9437EB72CDDA3A090DE65A5B2F50326247B7
310
EC67B73ACC7047FC9B353D6EE990F772207C6EC52B39DC2F3C0754821DAB559F7C1809C7D0DD5B0499D0442E0A6E391B3D5DB46D11E731E6794EC77523FBDAA242ED67F9FA1FB684255671F63C9BCFE6E7E896D51001A6113EF2298BA494E0B0980D1FA5B9D60796554C02256B1E0345FB7C6186B6A19D2DCA270416262845
310
FA4F42DB5D9B0A0B6F07FCA2E56C242522E001E0CEB734AF310FC8BFB57E38E03AACE93B3326A2197891E68452B26A6307FDABFEE0223D3C03C3C73D2D5BC054C8311F12004CAE488E5C29287F8156A2CAA4AD0D7BE6B97264E4139F437CE73ADF52E5134C52B819777C18B323A5924E4F67AFD13B1CDC3A61793A79FAF5C0
310
CEB718E441071E797C6DCCB9EFCF7E4A1E9F3DF3C2F9C9E8294E9586868788C972857FB0556D7A26941A7EEB9B580AD78EC40B85DC906B4120A563CA3B87797ED612D3B035962BB75F6515A393F4CB057F564CDF54F2E5A024514E6A1F901DB80C7E70B1FC05E356A7E72FABF4775B3E3FB8F70A2A8E7B6A94542BB3041579
310
78CCC999E707A29CC795E67A59CC546A5D47B368954CA7B6E75EC9E1F6FC73CE3B4F71F8CB1A6B15923D61EAAEB14626AAA9D04A26EB9C66CD1BE86CA31A5D8703DE04CD1EBCE4F5CCB62F93909AD11E55799A781A956ED27D3E738F4538CB04ADABC7DAEF20BC35BA6A90BCC1DC61BA05F20D8832FFB9BC9B15E2DB838A0A
310
FBB7E0C82A562127E0446894F427794C3037186F622BF24DE1B00AA10A23BFA47B2A180D6DA5AD6F7326FEB8C100C2D7142EB2A0B2A9D1008A09BA343D70E054AB69E2A7EDB783CBD92537FAF4A44D1296AC2792729104B3276C276C951D0CF3CF3F1E6B017720A7B8505A5FF9589365979678C36F1BAF759EAF57C60F1FF5
310
FE9DCF5F8E764FF25A2D06CF25117A8FED51884C13B2B750DB0E4F5E3D64124FCF11F0AD8F1CC3B3DA4B38ED22BF1CB2585EE6BFEBBA63FBFD44F9537B9B37BDD6B358720F98A8125AED4349CCFEB0E135F19E208A04CA7E2B10711185D72E381F448036EF57C9F874E54A971CA37A639E986AC0226DC5AA00D5B14FEA9192
310
234B3DE617814FC221C92F33F1D392F297731B567FD98FD91D989379AF567A65B8ADF177591DB90FBEA99BF4ED11B16E50A0AB1DBF1156D034BBE04D69D08F939D8E92BF525A1DDAFF80ECBC95D8F45D3FDD289FD23F7D8B452F8EBB34EC082DEEE68E18EDDF072060FAD2AB1504DD4879BF67099FC58F6E9DEFBF645D1633
310
4A3E9A127C6F1AF6132CF287E433B43A0EE93812B4AA0B194E03EE3FF91EF9C6ED0074A2F6EB18A96A7C9890B1FCDA1F2095E944DB911ED54C60DF16FB74C8CE9BDC7C54C4F14078CF73C2FFF1F1BBCCD7CF64F71407EA1683DBC410D226627F66E509060D5C0AFD611DE681D509DB8DD12FB1265B03C6F5C55FF4C30BD941
310
87FF692B4F152982502F193098A789526A038AB529A52BC0DC4FB6285CBAC10A8B8DB75DCD9BDABBB221E27D1F8DA9F5EE5926A1C8AA9BA9BC09239C6A7F12914EA3B59EFF7AAEC3FFCCE56F1C5C2980AD072793527565E774F4631DB178CEEC691B1F367BEA0CF2907E1D6B854D527065979DDEF002D8B2ACEA7CE21AE297
310
737EDE1D45B31233B73FEA35BCFDD0B09721FDBAF6432681F2FD10C3E9EFB246FD6E854B344ACC9D8A0EEF876A7314B49B6A499FC650B099D650DBFEC7638ADFD245E2B7839DA5AC5F7D5623FC0ECEEC8653FC9B2BDD1AD4D00A566FBA7186DD3C9CD26512551637498CADB950FEC71ADB9A5524285DE328B8EC7EC75D2345
310
AEC6A27C42AF6D9B92155315C80DBFCABBB7DA0FAE425C4FB896B15C9BFAC4FE67DF5A23D30C93DA4D8F36FB15D100050DA6062E22AEC5F4DAC4F6FEEF97AE05DE63C6D38F9E068A20BC5E3B6BCD75320C5090924E7F93640A7735B1A43451C2D91EE62C6238B797349E59890AF3A520DF4A87095F3ABEC2E61F0593416CE4
310
6CDCBE0E00E2523FCCD04408588B5B6C9DB6459C786CE378770B54F51DA3A5E1DF2A3349BEAAC234A6CF8993B598B3B25B4B113E353A4D750FA7534749430F3EBF2512E7EA3FD43C6AB9A1F765A58463B306721A15D224FAFE8C6F5E3432D57EE697DA0DD5A9D4866A8BCCAAA9DFF1F06047851408FEC060471D0E3EB86BFA
310
F46E4B5E60311DC3E3CEA147C75CF971BE74689507154FF2D2E92F15CDB2B9182B11459FD8ACAC5A85F174BC94A7F4EE4C4F5CAFA7C02E37BF0BC77B7DCD0C047BC316F562A01A441AFA7931CC84A28CB9F4AA367EB515778F29BFE61195FA671F4352E5E46E3A64773F1F76EE5EB36D7BCE9BCEAD837A4D77F8DB8C92AEEF
310
6711920D7C7D0F76B0FD0EB7AB83724CD35BCA7D36DDDF5FBB7FF6F04A91F3E2BB3B8F1A43CD659639507FF6331C5F697BCC782AE57D757A27D97F1AB9E0AEDB43F92F1B2AACDF5FEC8ADBAF9F814E2027003BA2F9E144B1938A7A04050AE5D953B82C45619165C813A10E76DD6906B3C16438064D14CDA713AEC420034613
310
E1AC7241904A49FBF87409AFB1FCB9B72FE7933A87D8FBEDACECE4EDCF6A4FE9FB94D5DEB74FAB7CFEAE17EE965DF980DCCA2D04134994F9A2E94D2265DA4FE6AA7B7AC15FACAC2B5ABBCD7DFF542C5314FDAB2E1B9D8B65220B8E2B638BE008E8DCA22678C820C5053664D15E89F2D735B51A84955E81A443545E9FF787BE
310
0FA700A76D136C27DA179A7C6E8939E01BE756E19CB292798063D8B97F44E8A27BCF3A614FEB8BE974A718E86F7EC99B53CA35FA24F61F2B07266684623A3D4CF073E511F3A10A8FDAFAF0078C577F4DF9D339FE7862E5FA47CF4344209E5BF76D783B1B48E152AD281B15FCB934DCDA49CEC5706B1EE8B460F435324A5CAD
310
154725E21AB8044B75A557A79F6C807B9340AA3D92503E866F4274412926C8C504E4D5EF8C0E68DD0B028781A6B4054F11CF18941F101C57CCC796773ABC8DED9CD91FE5788806C05E548895354AEAC96546D55B0E94A59F148D061F42AA398D822CDECA4CDE79E13469BDCC44FDC990F366BA5978C15F97ED80CBFD73B0CD
310
9B8B83A4F6845BDFBFAF034019473FB9A63BD55D3A4A7284757071574029A4D016DCCBE95DD679EF3C4880BF169422F8C89B68A988D2B13793CAED4F74DE7486C72DC94DF46B8E93D8E02EFCB1FF9B3BA10C8AE7F653DF94F4AF466CDDCEF5776687F7C4C14B63E4EED1719DC2EC482D7DBCC7AE518CDE3D5FF86D39000EC3
310
673C0044E1D308BF05F74D1B5F033A7D1BE7F74BC55BBE3E4A20F920946CA0271EB17BD2B80E5660ACB8A29A79F5E4BBA49D4D945B6EEF4A7EFEAA65E5555BBB57A7E15D2F83C69F30BBB978D2B39F1F26FC097424D39BB33CA3D87ABF64E307938B685BAD44F71556A30B7E712CA4FE600613C3E554B69ADE949A7CFE214D
310
F1FFF05CB82151EC6FC31950239F94CF7AD39DC473F6EA356E5EC2C4EFA04383CEFE985A127484366FBEE3C0EC4FEA363E4F6632AE781392FD45D67B63FB8DF70E82734F431FD3443172A0E30A83D60982D55FA6A2CF86DBA8382502ACC6CDEF3B907982EED1160E14863FA242F9757347E1544275CCDCF71ECD5F8621CBEA
310
326B8BA884AD7F825781923E66971F04010D574C541D8427A438A37EEF8AF88240EED7362C953F5A81DE2D56109CDE2524EA0F5D2F87308C0C47BD97AD605878AB8589E17CA83930CB5E0DCCD75853D68B1AB136594926DE426C367428E9334AFAFF90ECE221BB5DC9E5BB53D2CDEF954EAA9CD814F0E5725F1965DD458E5F
310
8487683AD86B9D0076BE3EE91EB1CECC5331A67A3F79D8B27587C12EC2A6A70474749F27B4C0BBAFB94B34189E88DC18964BE4121B9137FD516C7755356E50D6714E31ACD222621EBBCD1CFF81D87479056A9DA0E0B8EA19D24CF937DA89F78E8650CCBDC110AAB6C4E46DCBFD0446BA9E2060E81F314AC2031E88135E5476
310
AC0160EF5C0DD2EEF1B8B5CB2D198BE9A554A9093B5F7D7E4B5407DDFCA1D9C152FD97F55BFFFDFE802954DFEC8995B983E28AC92F1971E28F531DC407A1280EB125F64A72E617EFB27DFBCEDCDA2D6F2BDADA36873EE46B9BE1782998C63DA7182BC383FB6FD15DA472B175D7E8B4FC88F38D6E07FEAA3FA3CBB8F6B449EC
310
F14D2175E5C5CCA3A42ABF24CA6C9395AF74535F4DDB38CB84F56614B0FD32D7E19CA5CF988DB4449C40E23DF2B16772594554579094450F56F253CD25EA7F77366FB1CFE79696C428BB64D5A41E986189427E5E4D7E2DAE3D5BB4972B3DC44EAABDDDD63A2264ECFA5C786EB0EE1FDC5BE34FA0F08376869FD1E61EA06CAE
310
15191135445EE8F0394161C3266A596AA035572BB0C8876180D8B9C77D307DF9DCDF7365ABDA6F3A2366436457A4DFC1F259666569A9E4A79C817BDD5610E5200FCE894A358EC72858D50EF67545DA81C6FACE3D457BAF70367E1E6BDD9A952FB4F56247F58F523B97E640246051A72F79BE42FFA0B3187F63097F91C48B86
310
8586F714B0EBD5A00A8412C1236E1298F60C72BE6C96B82B404CADAA304AE9F303176B14BA53FBC2D5E86377E35542019E24D97B96A49B2C0E5006E7795954DEAF5DA58958839043C6C70BD3B1B33B6DC5C31316D8A6923F142E26F6711A2258AF977DDF1F970ECC4F1F2B434B96D81BEB6E89BF3BBB3C7C8CC80505070723
310
D6D7D7D3C8CA27CA164A26024FED94B12A86031867241DA53D929636DA600F050BC40CE48B8BA03D69224720DEE2ED2127390BDF5E6EA64527BBD4C4C63FA76BB801FEEC0E61218EC98A8A86CD8313781617877E66692839B9468CF4DB8E50A73986E558E309C0D6F676F921BE02F1185454DC75B111572FF9D27D85EA14C0
310
5AD7271225B391C4275659CA4A43759D0BA44639BE4C30A84DB7F67A41399FB95CBF923B1B1672ABC807C1590557FB18D811983FA97F5E609516D62281D38B1281F68FC75528C35E4CD7DF0F7DBB5E5DD69C414EBEA2F4A5B241B996BA77AE6C772E367408C633EA3E438B68563EA8BE7667F3A4C4FDEEA52ABD78A2820F44
310
3B7914A15F180018D231E64519C56A12F6CA7C8DAE18F06F6B769DBF92329EF6A5D18FBCE600F36BD8E8198DE5CDAA96181F3A756EBA5501CEE58F497EA4F418A2B82565B9BCC611713C0B708CCA1F398B78C5F7D03B3437CC18F13061F55C7BEDADD5ACB1DB0E36D3CE47FF6EA1A563A57E9649EA5D14D1A50EAA45746338
310
1C073777EF1600607BAF6428A7DDC079D47A204EF1E1F1F0589FB054D45E02CE623B3823C317C601E589E22B1E88B448524B86A82828E32345EC18AE17214B42F8C41C6D428016D9BA31DDCB47572561E5A402E5BA4FCE55F78AF7268524AA04130F3A20BA5D1E9F9948EA48FC8F5314FDB35E21898198060034ACE5E3E2BB
310
CA34092518F275190AF65F45867FF0900AA4B81F25427414C372BF51DC29AA855C5428EE1EEDD6B849AD60F6E73475C2D2523F8A2772C840A478DED18A8C5C91B085F255DC4F54EA7AA8947354FD17ECF8FB3B4A0DE7B483CAF3A1165EE05BBA413E5C1FEF3DE1D6B8F2F3F3251C17D9FCAB48A9AAF63AC773A0E413BBC46A
310
9ADF84A566FC920E4D8C52C9769EE3301CADEEEDD92B312E02E2A7E35B7F1E7D203FE5A7D75578B06E99D0E46FFADB8FDA17ED8880390DA29094202D6F645F76F6F96409CDA05495A96E84B04A00D1A6C6C81D7F3DE9376E828CCF144EE50E364ACCE7237EA0BFB5607ED1AC3CFE73794E5B61739D14DF1743441B1AC98F00
310
ECEDE9E7301FA29755FBEFA68C91EF2B314CF510537EF1ABFC9A762496280B546F5EDAAF8A5B387D469FC9A878A92828C88608453ACEC6094DCA54111E7AD5B2663DFE2DD151B7F123B9F4FEF8EE36AB125FD7AD52A59B1B765B3E3F73E3F73DEA93875004D2AFFE3CDE9493B87A9904DD052028949041A91DC0E1BA47BA71
310
4343FD5B25E0A6A09503AFC17C790058A836A324FE31D7893512E28230332F153181C1E018E1124EBE1BA262AA428A518237D1EA7275E48C5C561BD19ED6912EDD8367DA0F31E40EEAE9683DA9257525AEA7B632B97119E17145A90231768A4F3B9120FF32E8319B015E3CBE26F1A754177D8185345817C096B0CE443A955D
310
13AC15E1FB5DEEA0239EC32A3C92241A237B0B02FFCB4F93CF2B02570C8D192E2F2A68CEEB42F12E6F8CEEFF46C251E22B4341C56FB08CCE550E7A9D6F4D6564B9EA52A83D5BF2C6E03FA19D2775E15A8A7ACF30A13C259EE7F5EF2AC3BA354F1500E1A07FC63FB4686E2F12EC69719F9ECF5FE3F35598DF2CE944008CE78F
310
0911BA5BE5D0A34E0098FF038669C26030BA9B300303039852A8F6F496341737CA7E0D2E3AAA36DE0A70AA7D9CA0D54D9AD84B18A44C9E625475E1C97B93BEBB38DCE7D227E67A2D00F531436136355F243D1FC0D712C5765754FA22FCFFAE97919161F46D6E61ACB37D83777B385889770B50765B127768443A5C4D3A4E35
310
A3151111F146B7CA116F918A049F1C272F2CD7976C69A0068773451659A97E0F4A08FE604C3FF6CE7385DB19F4D3ABC8A0D80DA8A42096AC377DB49382B36E270B6FA7570188B4B7D1DDDDA82ACA487CCA5D38BD3BD039ADBAFA4ACFF27809239B722081E2EB9F145320553D183F28471C388BC8814E5045676767AB58A8E7
310
2D1CED2CA731379515D2E533E4CF0B39DFC625F97AC4836831A4DE330E87A8126FA17EBE583D614E71E22A8DBF2825599743E0640037303E8E1B1E8EA4E1ABFA4F62907B5E4E0E5DCFDAB417C36C6848A2B8D15F1E505434C0707E16B1CFC2A1C36A42BBF55734F8F4301DDC2A5110CEE8C0747F69519265012A2174BF4E95
310
5ECD4FDE095A3ABC70536B7AD0B9D7892F81287D667C108703C9B66A221E9A0929D030008F77FF6F5D2108EF5706FC87A3069B976F7C9FC3239D13D283CDEA83597461079FEEE049B0F392889898B7D87D31F8D60ED7B56B91823A8E4EDDB36C6172ECEE42BD42B12CD67994FA0F0DFAE9389356F4CD4425A4B8AA55CBF7EC
310
D585C6A2C2316791E43D5C06841ADBB226A87FD61515FFBB0167B74E56BD7F3E90A57A97FEDCBDF483A0D6699A8C0849CAEB4947FAA90D8E332D9DEBD9F4738C37DA0CAF9CF3DAA68BCB67C420459C7A64498D6E848E5CADE92BB6901F607AA331104A67F7CD650EE169B1DAE94D2C31C2F993632259B6957E246EFE4C5481
310
107B07118607700040E5812A2A2A38DA0076875258C753F60E0F2662C748EDD5F3F3686B8FC3BD6FE631ECCAA1E8B1C1E565AD117E54893E79F4672E32F9E46B2A183DFDCF3EECB4D4D077DBEA0DA254D256045109670050129E9B9B1A9E4A11344D61497A992778095151510C4BB7EF2009B63AA4360635312E4CF668B7E0
310
D3D85A8688E2BD83B569439892ADB63461930D428E0DE42E4AC57CE48DA5CC1449530D8BD3D6A0F08DF20C8E8F570F2CFFFCEA286E30969B4654D498A58D9DA782E19FE3F002181838925592C4A1EF0B332D88B61A92C644547BED490D3A42CFFAB70E36D961F694F6307F72FF15A1C79D5B1B5CEFD353D9E2B52566DEC8F8
310
F09CB3E8359C0F68EBBB7898243E34E12A015B2685AB303C04D3A9E00671FF3DFF0A184E4A2ABEB2B666AF5B3A209C73D8EF29DCDB069C9F391EEE9DD0F74C7BCDE16F8F02E3B8816122BBEB50665775B600549D8BB33A54A6BF940C028118BC6878C79958D6784F9DEAA6E26748386FFAF8D0D0101E2847B6563F5D8DC1D7
310
8F787BE00E2C941AE12148D4A81599FE8F68D4DA5CDED75530ADE138240300EE13B0FC13A1687FED6774662C05A2B7DFB186732F0D7A93545D8B0A6390AE5054D9CB582DA846D7A061B3358B45E2B52DDE63E114397EDB7E09233A579155D795BE76102CF277F4DF8B188C4F2879BEAE3C08347124BF9ED23B128259FE107D
310
31E34A652F090B30B39E0D9AF917B76A2806135621A8A60681F16AF216514BBD02711585B5B1AE823F4B2D0369EA5B6BCB863072727FFC871CA6C9AB79A814D989057E9470A3D238BC87CBB4A0EA49AFE2B86F22E499793CAA9047080450166BDC357524561E258C77CB697F1ABB32562CF87C3B7AA12F911EF19FB3E5C022
310
22E887D08202A60A17151F5E053A86B437771088B4FEE14D652C43E8D939995D34545E12E2FF93D4E366EAD25F10CB7DED141563C3D0C447AF06078A91135FD4B9611583CB4BF3BD167F2399CEAB0E0100F8FFC305F00F1711717173138B4B48C83022295DE657EFEDD97F238ECA80F528AFB4F8D67AD4E2594B9A3AA86D74
310
87EFC313BA95745C186F0CDD84CC12DC9CB0424B42203D351FD9C0A3AF10CC7F388E0329279087386421F194F4A29464C1DEF7EF8BE515E4A199DCD5B909342598D8FE6A231F71336248D5CEC5454455C7BE383B3BC7B260FED27F703FDC39A170F3827239102F59D4DEE7FEF82EAA1A5E4BA94DCC4CC44E7E2EDE20F24244
310
E4454369D2E87C3F823F193FD4FD27E1C23984B01898D15ABC20711A8A558054951A6AE280096BA36CBA439603B7B0B4C45F248C14B2383B4B5CD8ECECE4FF859AD4A6CA2326D020EF090F4041D28DB66E5256B56232CC52829DE8060BAE6BBF37D4B7469B822454FE93210A3E8D15E69FFCF01123222611C51C4FD0A041A0
310
CFA2471CF6BE38D2B20FA4C3525B5B8B586759475CF80ADFE67A284AC24651E52B8E683D24C2622642F27E7C3C22783BCF63648BC398BD6CD0D9C97E7E7E3EACB6126DB7A6C1FD9F1031302EE67ED96F22B77C7CA0239BB324207559B105E4693EB26EC46182A92C9C0DBD24F29B31C5C5AC1F84300E0E17CEEAC15F5736FA
310
4A98971E2F1423BFCD68D4BBD5F86E74B40A369F39507C88FCDB35D2DD8DEBEA4AF999E23CF2816D204200DF6E611781B9884C1AC8888B4DE397320472959434323A5A36B22A8E1F721A270DF3BD65E4A31C11FF048AFB0D8B7B6881423793963A23CFCE935FC189ED36FAE35C46DA3574C979E4394BE52084F3081837BE03
310
3396D2EBD80F1F691B273F660D2B32FA27A33B1DE4ADA5F0FA4651511102DFA410DDA86E065272CA314D5249DF91B06BB92807B28EFD54F08F7B525252782CD276DD02E6B0319B13DF87B1F6361AD6B28FC0D711CF445429B9E5A433CD493051C49A9E03DDB1B147D880253514A5DED88009018620EE229101C041950E2D8A
310
A8E1F5F5438E0C0C0C60EEDEE9E3E0C051948C69F84BB7B2A48A1F3C8EB9E6864687F4F4F6F6E2FA87608ADAF9C5E117B7C1A737E710769DA1D15ECE6A84502AA855398712D5FB51BE92E4EF824969CE18278798AC303C2C7980DD2500ADF8FB1E6D6C2FAAFF9987178923334A244758BAA01A9A1B70FA5097D01E1CC2A58D
310
AD0EC94CE6430AA9B0C10D75E3C6BAC670EFBADEE1607739CE0FC18A2587E3EC3058562014C64219C69BC269082D5C2F4A659278D585755912176D78A1B641719C2A394CED495A1AC5D583FD2F5EDD93308EA7EAE8A6DD396598BDBD3D4CFED62D18A5BDFDE0DD5C80D1A89BA62697B131AE7CE9A6594138582F1B37D68F17
310
49AC7CB67A70695D48A4A056AC1FBD4E82358CEAE38F54B95A9016F9000F9879C0D9D131768635CA798895F27D6F1614F11F2838A83611AA51C9A3DDB539D42979C29F10465655C17BEC3E2760B80DCBF609198C7B171A531905F3EC218D696025975E986C6B4C666666787271F202805577DD5A3EF0CAFAF91B62DC4B2DB4
310
217A7606282F31D8DDBC290593BAA93EA6353AFA9939B877978481E15CFC9F2755CDC00C538F63A4BA3E80AE009B73CA0185687D339A507D165B74290D6EE46D5C58148F020C3668ABE9EF2F7549170DC80DB41FFC1D678FF19AEB10C7133832B104B80F691B3138F97A92D26E551F1F110400D45AC71A9B9AC41A1A1B1DAE
310
ED0B0810638EFFB511D46B121C6FEA0F38CD00E03CFFEB9713FE1F9C263E4DDEC160D0497FA9A132BA608584057FB15380825DE6C7FC3C667EE947D488A09898D8E939C4953BF4EC9836344D2CC6B2971B2A21A572B06096F4982D2CC7232D46E8EA69DC83722E267754D777F97F96D5DA74E1E75178084D0E70F12AD33E5F
310
71EF2AFA599B2BEBF60A5BE475F444F240CBFE8143C334E7ED9150FEEFEF7EB020C4DBED388DD1D6A167A76F3CBF119B578AE8CFA7736ACAFA4440A1C47185638A0D2F3EB5BDDEFDA958FB13CE4AA4923D5BF840392D45544329525749734866684BF7F8D9D54D892E19BCA9F829A0F8BFCBEEA6CFDFC61D74EA1A645ED7A1
310
FF241739F15694BD835B66FEC5677E40FE69BD3F91AE402F036537218A401CB0828604AD189E575015C6F3F6BBC8AC79CF6C70653847254B31551EFCBEB5978B9DB85D58D0FA41A9DFE9C624834AA04949D24B5AE6D299E072D152D12097920F14AA92C31C3B97E28B6C2E6E9C23D63043ECBBC0A60FDF5BD0C33C127EA8A3
310
308B8B6AFFEB28B4455BF6E7AF4FC6222728357EB8E46E85053E6A8843AB23295BF838ABDA94658FEF3F832F147046B4ACD6F7D48E8FCC9618582961C898D1C7A253C91BFECBDA6BA18A1FCF70755DCCEE2222F41B76D23CA98D0CB3D95F0CF66D57FFF65E2A90F5DF40FC3187621E981BD0BC1D992787212688976B94A8F0
310
C6EF646624B570B78E068826F87CE27041A95C9A4871FF65CC17FCB1639629AD6A9517000D63AC231F3D741CB8430777E7ECF80CE7A3F73C0F162F7E56AA71F4DA80A33CD6ACEE78E2C11FAC03DAFCE929B106F8F6B3ED2DC71FF994BD9CEF4E9A94896EF1B6E2B7B4978168BCF0847A3D2A4F1B0500B926E634B174548E9F
310
BAD27153FB5FC36799B1E6C7C38A94E1F9E996796D7B485E635D5287A2AE76FBD11A341DB3F8F810385BB7296391973DC6C37C452A9305AEBBE0CDB6C566DB59FE60C8E94B1FD090354BF51439FFD1B48D725228FFA88C84F686F547107A7A235665A4593B7C34D748C1AC8D56DD5DA861EEFBADDECBBD65117E65851F9035
310
1AEB65F0EFCFF4BCFEF24CB7A5879699FAC437A7AF9099186CF006BB923A59E37D7A36A29FD8D2CBB914A5E9D0A8FD212FBF796AE9A67958FF1D5D8B85F78F96219D4714EB919929241B6C018AAE0C02069F8D919961EC5DDFBFB7573E3AC8E08BFB7C8534BE6DE045B3CD63DBD71F7638BA2309CAE398EA3A7D8F98BBBC7A
310
EB367EFA5CFA27A9F8F2F52FE878058E6209C026453F8E7E8A237DFC389E9590F6059B397CFD65183BBF936E86896612A5B5FEE49DAC8455D026218AFEBEC12B3523A45B57B82C9C97E02ACFA1184DB18E48CF615DBF39C3CC6F0B4AE6BBEEA2E39D944E290302FA3DE33FA7E40296E2EF7BF1CD855BBECFAD0FD622BEE974
310
6FC4FDFDE545AE6E3BC234CADF83A0FB76DFB145BF3828AE3436368AC24989454F8FF70A177672C711CAA1A76107218CF948CA01F873520E7A2B118EBB161ABAD432932029628B6761590C98AB590C8C8C79798CE9F715BA696E839E9131A4BB68BE923F1747FBFF165331FFDD4D05997ACD168F12CA75348DAC04C7F509FE
310
83898A8B421181AF492861CE81E4A2DD0A30850CFA95E05F097FF70F9E777310D584A75BA7018922E271DAB1D785671157685B7D383D3E074DDB4F1E44EF04B07BAAC75A062077C54B9752C738C9D804D402E02851F3F89605AF189738C18C021D2139EAF72513824E10DDD3047BACC8521ED7E98B257D1166903B1B08FA6F
310
918FD7E162913FEC7D0EF4787E29C35FBA8C6E2C9C20E9AB30AE42CA2A01A090E7D010C1B5BF9CEE2A304BF3A987FB40D836979B79E18D70F257DA61E808472DD85B82761825779D6B90CAEB0F23360C6F80A7D7D77545E95B3DFF0CF96A827F9B5BCECD2C9698718417EF80FEEDEE938AFF55859D0D540B7FE09435583A6F
310
04874A0C7E8CF234DF4879722000167F5872CEC6BF3EF7E5A8CC8121E6A359227C8A29C95212F9F735BC72A887D56B8F309FC525BFB4FD767AAEC4AEFF249CFBBD2DE1AB9969A6155C7D8DABC307E47324C1F916C7BCFF40ABA5644E9FFB9238D19ADADA49D9610F01ABBA57E4DFCBDCCBB2B93C8953206C91DE01B0E2651A
310
6D6C31721915B31F7B7CBCE55466F6D70402788FA91D73BE4ADCBA99A35F17D6B83383704917D6833F0FA3CD45C926ADB8BC17999A4A0AFBCE2541F7B8CF4C2F5FBA611B3E626D64407CB32C122DFF4EF8674D6EDBB86C8F7C6A16D50FA685E2CCA34F8F7D1D8265BB0042E9D7F1F666F7BE5FAA5184DF58E12122A42EF02F
310
461B3F369AC746F96528AD208512AB56844CF75B97F352DF7995024FB02855385854F3798670D01CAC771AC3E1889EC25F61A20C1F8CAB46898817F9C47E2CDA1F286BF2F358298709FE567C91133E2638C8B53975E753EA8BFD3578B5F7186B7BF084EBA3F77BAC3132A5779902EC22AF2D2E79F42D324E083386DAEE9810
310
D1B44A5DAA54513C7A71E52A4AB9257D975B621308FE4D2141CC3DCFE946C154A3C1DFCCA7629EC69ACFA831634ADDA93C0388D2A9A2DDAFCF957C6995BCE7FBB6DC4EBAE79E63EB08E9A25F52F67076F7093CA545CA3053B5BF576DEAD4E0017143C5F759F32B2D6F145B52B67B48909B7C7FCA6586EE385A2189C16932CB
310
6DDFD9152AE317C430492A578ED27B72D85D40C7C93C097939E1B50F4D67F05334FE9DC362C30B7FF561B95259138ECFD9274C8D695C31B14D4EAA9F3D7FA8DDF652F8C5DEFA23284C799B7D94416DEE81E05A866302DC70192A5368EA65E1CED8BF107A1E2D3119A71E85DC1A7B0C1E93274CE04DD0F2ABC8AC7C987FDB00
310
2B6F81757B43502EF7A0D92E416494FAEEA4C9C090CD9557AA4D532F4996A272B94355C5A0E4974EEA9627476F30809B94D8D8D860062E02204643BEC7D0438AF800FC7E2B26955D595421E83C69E1A07E0E3122285835F014AD538188CF9737CE76D464A353FA55A001AB2526B84E985083693BC76FE211CA1D000679C889
310
E3C009832C87E1AC2EDD05C302557422DF0800E316FCAC86978A371F025A6C7DAA9F333E7BD160403A1A06EA75AA9888FF01504B0304140006080800B7512B4B51464CB48900000043010000360000006662782F35374131373137352D423641432D343144302D424236302D4435324332453841304343432F646972656374
310
6F72792E786D6C9D8F310EC2300C45AF127987122606C71DD918B841D4B851A43646695A717C52A85029031293A5A76FBF6FACEF7DA7264E43906840EF0FA03836E242F406C6DCEE4EA06AC22492573150D1F66C60C640E8938CB705396EEDD86DE9B5042FE27813D640EA63BB001C722AF6E55CB61E4863F58284D5D3F53D
310
D715CE1C3985E63FD7F1B7EBDD617E9F1E504B0304140006080800B7512B4B404881593C070000201C0000340000006662782F35374131373137352D423641432D343144302D424236302D4435324332453841304343432F6F626A656374732E786D6CDD59596FDB3810FE2B84F665F74197AFD885E3C2B193C228D21635BA
310
D837819669871BEA002525CEFEFA1D52A42C2AB2ADF400169B00B14391C3996FEED1F4FD2162E889F08C26F1B5E53B9E85481C265B1AEFAFAD22DFD9630BBD9FA1294F92BCB6CF42318EC8B52596ADD974CF9322554B5BB2C3056BAEDEDDFC85B290C4C44221C359766D65E10389B0838B3CD992ECD1D9E21C3BFBDDC1F19D
310
72A34976CF71FAD0B82AC59CC439B00AEB3150511CF8E6BF20923B9BBA6283B1ADDF6D5BEFCC36570A6E324AE32CC771F88AABC675BD135C35AEEBFB83E56D6F38B1878341DF1E8C7ABE7D7377B3B4FDABBEB7182D1693F9EDC442B3E9264958A58094C45BD0E28B35F3A7AE785289AF5068E33B4CE298840ACDB60D5BA2E8
310
529235313180F5A568358594B2D616FA1D853FB1AD1328064B06DA5A38FD59B7DE64F337809075B1529E1161E559CE41D70AFBD21FBCA95BAE1A7AA1198A704E38C50C31BAE1988382606BA920838CF016410A09CCA41635BD3AAF60D8977DA98DCB5DC198F05F6B263D2D007F24792639A3FF107EE4BE7E1BF004D21634CE
310
C74AD8FC25051293A92B17CB67FD9E7A580289760CEFC15A404CB1A9DF6BE0B510B160B5B4661FEF3687B5880FED97A73C4909CF85E54967567EA73558332D30BE0EA094B89ABA3BA2F215A0FF04C857BCA029688ED3C3E030D0B2731C67BB8447A01DE421DB833F1E125F5F7D9BBAD5E1194246AC3C8529B8ED4FC2D410C3
310
B8BB06E96CFA04469FF0BE126E1D6206367D4F63E1E760288825B004F17EB73958B31504535884539881F4F03B75C557041F251D88370D0DB585DF0E8AD20ED3F4B3A3AE3E80CD701A56AA32643C85EFF0A7E03B5FAE3FAE0BBEC321B9578EBD243B1AD31C92693B4306E886CB7F5B7D921EF981251BCC8EA78D4D215CB34F
310
44DC6851CB5AA90549BD0027220D979A912BF714BC9D311C93A4C8D47A5B9C0A1396F060F312942EDC7AD79FDA06CACB9401B4C63248EE21A7A9C0C49A296D5581D0A9090A1686B9B2C07DA9D56053446980A3A48845A87D6D8A4D3E20CE084B04AA929A366CEDB59AEC96EE764506C1AB95E4C20052F9B3265C5AF800E258
310
1BBF9CEC3886249AC401851C0CCED27A83714105DE799E33C2760165AC88821D6590478208A727E87794A09EB91EC9CB73C2B7AD044DCBD23EA96D4800AE80D520E96C55C67CA5534E9EA82833653ED3D9C0D8A1EA506B3638912E44A66801541BA334F3DEE06EB0BC1A8E6D7FB9B8B50773EFC69E5F8D96F6F8763CF7BCF1
310
E276D43B5A8944E018ADEAF90E5429CA1CC3FFF28722DAC498327820C4C6DBF4DD7B993DAF5D088DEEF06AEE5FF95743FB66345FD8037FE9D9373723CF5E0E7B8B9EB87FB158B89C6449C14392B93DD70BB449A6F1BE89DEE5180A65CDE564A7F5D514E67F1C439B39C150E27F35885656D95210760DA2E2683384E2F051A4
310
A82084AAAFD57D1A41B4C9475B9C7B635CF69CBE277F7C7FD2F326BDF1645419FBD9402DEFF9E138D72641087D679107498A439AB727D4062E1DE3F49B728BD3F78708D0A9FE56979CCF33EA928046784F821D165D424B60BC24416B0EDBB324CB684C32D9E5BDAAFE1A343D078A2933E7B61821CD8288E4F87BEC4FB60D0D
310
9B86D8CC02E847733111B858155406AD3A90531445F70B895BCAFF1264384A59D9E95EC2C0EF6908748FD36671826971C513D85B80F3C0DB1239B8B844BD625FD707AD5A6B529F7C37F913F0E8BAE617C2A3AFE85E3A39437F227EC610544643BF7FA51571092B7D552EFA385640E719BE04CF84EE1F3A159ADD74522BD9CA
310
A23A2711B4B1382F78277F1D0DBD5717A9B8D07088DA4D6F2C0E65FFA63B38404F3670A7CADBDA355087D218E65C9D04792545AB094B5DC8999E185DBDC1AFCF2ABB4EF587E3E52FAF98EBCE17C9E1CF651CA05A2E03B08A3E464DDD5A751BF550F68CF31002E95A7EDA37E0115BB23D366606B9B6125DD7A997AAE79508A8
310
114C6CB188B3F7E20BFB8A41D5D03D67EE87B26873CBF595486C0E0CA78F7C184C9BB43E7F5837A8C04AE7D35F0446E4B94141AD2E44377C86D4B7D5B1E76F5050127D5B9D39FE9FE828B4026B633498066709A33094275BB42709646F183B74E8367844329995C1785590D26F043A9C7E2A67AA39DE307D3A7CC0309866AA
310
172B42188A42C6BCB6D43AFA0DC6A06212298753CE23B4612A8659A8E0F4DA028BCD29745BCE06C659727828A937C695E0D838DE8B7C5F9EAAFE3F1E13E840543ACA55EDE9828B92CC7026286C53F99E00AABEF2C16CFAFDA26B7610CEE1EBA6C82B618E0B47691408FA8540291C4CFD1E15BC072828CECBE53B728F0149A7
310
C9FC593B28A9DA39E67B395EAFE13D5F7E71C5647CF519A5ACD80B759EEB7E0D4AB6E8BA59514EA1A660184ACC148B1A72F1CEFDC21378C514A13B0A46807E3F8C477FB88B248A92B85C72E7EA45155A3FC06BA7ADAB477ED0C67BFEC895530035D60F3638230EDE668FB000AAE554CC464B880D03A8A269CD00B446842EE0
310
98B17FB544AA36AA4D48EA6157C02367FA081C49BCCB116E53DF501B40822F0057F2E1F18B5E98BA1C86E0B37F01504B0304140006080800B7512B4BE91F8ABBE1000000550100003C0000006662782F35374131373137352D423641432D343144302D424236302D4435324332453841304343432F7265736F75726365732F
310
322F636E782E786D6C4D90CD4E042110845F8590781C7E5693D50DC3BE84272F1B647A912CD0137E8CBEBDB062E2A93B555F3AD5A5CE5F31904FC8C5635AA96482124816379FDC4A5BBD2ECF949CB5CA88F51F46493211563A64AA95CBD8F6296D70352D0C35F8749BA2B8384890BDBDECC95162832965A5C57E4034CCB48A
310
1B941BDB4C354CB20C055BB6D04F541F619EB0194C858DEA8390C745BC2C52BE4A71928FA7A7E39BE283D4EA1D314CDEA70A19F78783B0D8D7D41309C507A055CB7E52E38D6EFCC5633D9EE2DDD6AAD4DC3B9858FDDE3BE6A371C0EFC8AFAB151F4FF6716FA0CF5188FE01504B0304140006080800B7512B4BFF15A4A45D00
310
0000800000003A0000006662782F35374131373137352D423641432D343144302D424236302D4435324332453841304343432F7265736F75726365732F636E782E786D6C4D8B3B0E80201005AF42B6F75B59F0390B113044D83508C6E30BC6C26AF226F3B8BA6360974DA7271430F523308B2B198F9B80925DB700539227A2
310
FCCB80A18E5640D320F996A81C9F32D6E9129A0D1EF74FCE750E6D57BC7165FBCA07504B0304140006080800B7512B4B904725FE4201000056050000300000006662782F35374131373137352D423641432D343144302D424236302D4435324332453841304343432F636E782E786D6CCD94C14E032110865F6543E271D9A5
310
9A541B96261E7C020FC61BCB4EB75816363018FBF642DDB61AD3E8A1497B23C347F2FF333FC3971F8329DEC107ED6C4318AD490156B94EDBBE211157E53D2996827BE7F01B460A2B0768482E13C17BEFE238953A58C96872D568BB998A12D1EB362204522823436848506B182495115D0761433B899232EA21B8E815A4F7A8
310
0798DE2B0F12A1236256B379593F948C3DB37AC16E1777F3575E6552F0D63933F1DA227837DECC6AE5D2D1263935AF322078F47AA2B207228EDA68AB2DAFD2BDE021E9B5FDC4E176CCDC381AAD24A646554E216099209003AFBE60C1ABECF887EFA7C797A38674EAB40785CE6F2FD60676AA0D07693425E27F5DD8817F9977
310
ED5BB27CB9B99F343C093B9BDD7D72438AEEEF24A43C49DB9B6BFC000769E7CF7F5A2CA8D5359ADE2B3B93E76AB702D3E0F346149F504B0304140006080800B7512B4B2B665F127D000000A30000000B0000006662782F636E782E786D6C4D8C410E83201405AF42FE9E164C11178001EC414C45438A60A8363D7EA171D1D5
310
4B266F46F49F35A0B7CB2F9FA2047A21805C7CA4C9C745C2B1CFB803D42B9153DAFF6E80E2B83A091583124B4EC776A2C9CDE3112A0D3E3E4FC8B8A69C72864DAB2DBED18160635A8207D6D8E6DE6962AD2DC6B52A657EBDB235AFBE504B0304140006080800B7512B4BA6D797065F0000008200000007000000636E782E78
310
6D6C4DCB3B0E80201045D1AD90E9FD7516806B51190811670C8A61F982B1B0BAC9C97B72CA7B1037C6D3332918DA1E04D2CAC69353902EDB8C20262D23F3F59B81A079470595414B17391D1F19B4730A5583A7ED43BBE4025D9592775E5ADFFA01504B0304140006080800B7512B4BECFD112DA80000002601000013000000
310
5B436F6E74656E745F54797065735D2E786D6C7D4F4B0EC22010BD0A61DF525D18634ABB506FE00510A79458060253536F2FD89D5197F3FED3F68B9BD80362B21E25DFD40D6780DADF2C1AC9671AAA3D677DD75E9E0112CB5A4C928F44E12044D22338956A1F003333F8E814E5331A1194BE2B0362DB343BA13D1220555432
310
78D79E6050F344ECBC6478EDCD76CE8EABAE5449AE4298AC56946789C28AAFBEABC53F3EAF09A84A1441B91F0101CD4780756578C173A578FFDDBD00504B0304140006080800B7512B4B3DEE336E64000000790000001B0000006175746F6465736B2D64657369676E2D7061636B6167652E786D6C35CBC10E83200C00D05F
310
21DCA56CA76D41FC96062B120735B69A7DBE268BB7777961F8D5AF396893C2ADB70FE7ADA196782C2DF776D7A97B5933C430F15651E5469C55D70F80A4992A3ADC954792C525AE70A1E4D6AD9816CC044FEFDF01FE3FDE907802504B0304140006080800B7512B4BD50DA4DAF40000008E0100003D0000006662782F353741
310
31373137352D423641432D343144302D424236302D4435324332453841304343432F7265736F75726365732F322F636F72652E786D6C8550CB6E833010FC15B477830DA4249171D452F8829E7AB36C875A0936F2A3EAE7D70E546A4F3DED6A76667677E8E56BB9179FCA796D4D0FA4C4502823ACD466EE21862B3A427161D4
310
591B7ED1A0307C513D6418189D9D8DEB0E096B8232193556AA1DE4DEAB0085B8A7A6072F3ED4C24B1E4362F85BB97271E3B32A49B9F1188D51CB5DAA6572D357AD1CB0A6C5AFCD01D7681A8609B5E338A0E7D3D0A1F169388DF5D4BE1C9A23ADB298D1A0979FEDC2291E94045663D2217C4284BC117C26CDB9EDDE6995998C
310
FAE0D2CFFBD2FC5DA2D36A43FFB8C555FEEF16B5094DBDBB6D0A0F8CA4E31E0346AB9C4E2A8FE852CD49B26F504B0304140006080800B7512B4B71750008F9000000960100003B0000006662782F35374131373137352D423641432D343144302D424236302D4435324332453841304343432F7265736F75726365732F636F
310
72652E786D6C8550CB6E833010FC15B47703065292C8386A297C414FBD596643AD041BF951F5F36B072AB5A79E76353B33BB3BECF2B5DCB34FB44E19DD01CD4BC8504B33293D7710FC951C21BB70668DF1BF689069B160070906CE666BC2BA43D2688F3AA1DA4CB883C239F490C97B6C3A70F20317918BE023C3DDF255C89B
310
9831A7F9C6E32C0435ED5235453775556881D74DF95A1FCA8A8C7D3F9266187AF27CEA5B323CF5A7A11A9B97437D64451273E6D5F2B35D5A141E27E055495B529E08A56FB43CD3FADCB4EFAC484CCE9CB7F1E77D69FA0EB845678295E858B14DFFB88675FADF3528EDEB6A77DD140E388D473E069C1529A5581E11C69A12E5
310
DF504B0304140006080800B7512B4B503B4CB8F2000000B1010000310000006662782F35374131373137352D423641432D343144302D424236302D4435324332453841304343432F636F72652E786D6C8D50CB6EC32010FC156BEFD8E0C4711A6122DBE91FF4D41B02E2A0C460F1A8FAF985D895DA5B4E8B666798D9A1E7EF
310
F9517C29E7B5351D901243A18CB0529BA98318AEE808C59951676DF84383C2F059759061607472362E1B24AC09CA64D458A936907BAF0214E2911E1D787153332F790C89E1EFE5C2C59D4FAA24E5CA6334E8F9572A9CE241496035262DC26F88900F824F6477DAB79FB4CA4C4663D472B3D232B9EBAB560E58D3F6A4256D83
310
86433FA23DB960340C078C2E4D3DD6EFC71E8FE348AB2C66D407976EDE3EC9D7BD2A5F85FF32C745BE90599BB0AB37C355E1819194E7B960B4CA05A6F16C37CD5C36FB01504B0304140006080800B7512B4BC066984054010000DD0200000C0000006662782F636F72652E786D6C8D52DB6E842014FC15C33B2AEA762F4136
310
AD75BFA04F7D6391B564150C82D9CF2F7889F5A1DBC604C99C7366CE4CC0E747DB0403D7BD503207288C41C025539590750EACB9C10308CE046BA5CC8F361048DAF21C7818105C6B65BB19624A1A2E3D2A55C56790F63D3720608DBBE4A0675FBCA521B5C675F4F7B0A3EC4E6B1EA270EA23D85A51CDA3A2726CE226B80624
310
CDE2F7741727F0521417989565015F8FC51E962FC5B14C2ED9DB2E3DE0C80F136C44BBA833CDA9E11520498CF6303E42843E507C42E929DB7FE2C87712DC1BED3CCFA2DE1D20B7EB034713BEE1B35DF5379F15D2A4C9CC374DF48020B7DE582038F2F9B8DF18DE364327ECF233F4DA2C16EE0E1A38334A67AE5229BB9606DA
310
58EEA8E360FC7034551DF348F01B4FF284E739870B8ACADAAD468DBB5EADF1EADB9D3AAEE1601E8154BAA5CDBADCB4E27AAE421B4BCB38538DD2FF995EAC2E6146FE61926F504B0304140006080800B7512B4B86763D3608010000B201000008000000636F72652E786D6C8D50C16E842014FC15F2EE28A85BD70DB269AD7E
310
414FBD51615DB20A4670D3FE7D61B5497BEBE99199796F8661E7CF694477B5386D4D0D34218094E9ADD466A861F5177C0474E66CB1D6FF9201326252354418381B16BBCE3BD45BE39589A8B152EDA0704E7940FD181E35B8FEAA269188D50785BB25B3E86F6250094D361D675E4F3FABFDA2845712784668894985297DA3E4
310
44F35351BEB3342A395B572D772B2D83BBBE68B500CF0BF29A1F4886BBA6E970D1B60D7EAE9A12B74F4DD5665DF172C88F2C8DCB9C39BF843FEF47424E8F9CB8475F966E14671FD68EBB208492C89AF10B38616924FE845E67F98FD0DAF83CDB0F6E1B0E380D811E44308E0D86F1A837CCD836FF06504B0102140014000608
310
0800B7512B4B0000000000000000000000003700000000000000000000000000000000006662782F35374131373137352D423641432D343144302D424236302D4435324332453841304343432F617474726962757465732E62696E504B01021400140006080800B7512B4B0000000000000000000000003500000000000000
310
000000000000550000006662782F35374131373137352D423641432D343144302D424236302D4435324332453841304343432F76657274696365732E62696E504B01021400140006080800B7512B4BF270F13306000000040000003600000000000000000000000000A80000006662782F35374131373137352D423641432D
310
343144302D424236302D4435324332453841304343432F747269616E676C65732E62696E504B01021400140006080800B7512B4B88E57597CD3F0000904100004200000000000000000000000000020100006662782F35374131373137352D423641432D343144302D424236302D4435324332453841304343432F7265736F
310
75726365732F322F305F67656E657269632E706E67504B01021400140006080800B7512B4B51464CB4890000004301000036000000000000000000000000002F4100006662782F35374131373137352D423641432D343144302D424236302D4435324332453841304343432F6469726563746F72792E786D6C504B01021400
310
140006080800B7512B4B404881593C070000201C000034000000000000000000000000000C4200006662782F35374131373137352D423641432D343144302D424236302D4435324332453841304343432F6F626A656374732E786D6C504B01021400140006080800B7512B4BE91F8ABBE1000000550100003C000000000000
310
000000000000009A4900006662782F35374131373137352D423641432D343144302D424236302D4435324332453841304343432F7265736F75726365732F322F636E782E786D6C504B01021400140006080800B7512B4BFF15A4A45D000000800000003A00000000000000000000000000D54A00006662782F353741313731
310
37352D423641432D343144302D424236302D4435324332453841304343432F7265736F75726365732F636E782E786D6C504B01021400140006080800B7512B4B904725FE420100005605000030000000000000000000000000008A4B00006662782F35374131373137352D423641432D343144302D424236302D4435324332
310
453841304343432F636E782E786D6C504B01021400140006080800B7512B4B2B665F127D000000A30000000B000000000000000000000000001A4D00006662782F636E782E786D6C504B01021400140006080800B7512B4BA6D797065F000000820000000700000000000000000000000000C04D0000636E782E786D6C504B
310
01021400140006080800B7512B4BECFD112DA8000000260100001300000000000000000000000000444E00005B436F6E74656E745F54797065735D2E786D6C504B01021400140006080800B7512B4B3DEE336E64000000790000001B000000000000000000000000001D4F00006175746F6465736B2D64657369676E2D7061
310
636B6167652E786D6C504B01021400140006080800B7512B4BD50DA4DAF40000008E0100003D00000000000000000000000000BA4F00006662782F35374131373137352D423641432D343144302D424236302D4435324332453841304343432F7265736F75726365732F322F636F72652E786D6C504B010214001400060808
310
00B7512B4B71750008F9000000960100003B00000000000000000000000000095100006662782F35374131373137352D423641432D343144302D424236302D4435324332453841304343432F7265736F75726365732F636F72652E786D6C504B01021400140006080800B7512B4B503B4CB8F2000000B10100003100000000
310
0000000000000000005B5200006662782F35374131373137352D423641432D343144302D424236302D4435324332453841304343432F636F72652E786D6C504B01021400140006080800B7512B4BC066984054010000DD0200000C000000000000000000000000009C5300006662782F636F72652E786D6C504B0102140014
310
0006080800B7512B4B86763D3608010000B201000008000000000000000000000000001A550000636F72652E786D6C504B050600000000120012002D060000485600000000
  0
XRECORD
  5
27
102
{ACAD_REACTORS
330
22
102
}
330
22
100
AcDbXrecord
280
     1
270
     1
271
     1
  0
XRECORD
  5
26
102
{ACAD_REACTORS
330
22
102
}
330
22
100
AcDbXrecord
280
     1
270
     1
271
     1
  0
XRECORD
  5
28
102
{ACAD_REACTORS
330
22
102
}
330
22
100
AcDbXrecord
280
     1
270
     1
271
     1
  0
XRECORD
  5
25
102
{ACAD_REACTORS
330
22
102
}
330
22
100
AcDbXrecord
280
     1
270
     1
271
     1
  0
XRECORD
  5
1576
102
{ACAD_REACTORS
330
1575
102
}
330
1575
100
AcDbXrecord
280
     1
102
DISPLAYNAME
  1
Imperial24
102
FLAGS
 90
        0
  0
CELLSTYLEMAP
  5
1574
102
{ACAD_REACTORS
330
E93
102
}
330
E93
100
AcDbCellStyleMap
 90
        3
300
CELLSTYLE
  1
TABLEFORMAT_BEGIN
 90
        5
170
     1
 91
        0
 92
    32768
 62
   257
 93
        1
300
CONTENTFORMAT
  1
CONTENTFORMAT_BEGIN
 90
        0
 91
        0
 92
      512
 93
        0
300

 40
0.0
140
1.0
 94
        5
 62
     0
340
5D
144
0.25
309
CONTENTFORMAT_END
171
     1
301
MARGIN
  1
CELLMARGIN_BEGIN
 40
0.06
 40
0.06
 40
0.06
 40
0.06
 40
0.18
 40
0.18
309
CELLMARGIN_END
 94
        6
 95
        1
302
GRIDFORMAT
  1
GRIDFORMAT_BEGIN
 90
        0
 91
        1
 62
     0
 92
       -2
340
0
 93
        0
 40
0.045
309
GRIDFORMAT_END
 95
        2
302
GRIDFORMAT
  1
GRIDFORMAT_BEGIN
 90
        0
 91
        1
 62
     0
 92
       -2
340
0
 93
        0
 40
0.045
309
GRIDFORMAT_END
 95
        4
302
GRIDFORMAT
  1
GRIDFORMAT_BEGIN
 90
        0
 91
        1
 62
     0
 92
       -2
340
0
 93
        0
 40
0.045
309
GRIDFORMAT_END
 95
        8
302
GRIDFORMAT
  1
GRIDFORMAT_BEGIN
 90
        0
 91
        1
 62
     0
 92
       -2
340
0
 93
        0
 40
0.045
309
GRIDFORMAT_END
 95
       16
302
GRIDFORMAT
  1
GRIDFORMAT_BEGIN
 90
        0
 91
        1
 62
     0
 92
       -2
340
0
 93
        0
 40
0.045
309
GRIDFORMAT_END
 95
       32
302
GRIDFORMAT
  1
GRIDFORMAT_BEGIN
 90
        0
 91
        1
 62
     0
 92
       -2
340
0
 93
        0
 40
0.045
309
GRIDFORMAT_END
309
TABLEFORMAT_END
  1
CELLSTYLE_BEGIN
 90
        1
 91
        1
300
_TITLE
309
CELLSTYLE_END
300
CELLSTYLE
  1
TABLEFORMAT_BEGIN
 90
        5
170
     1
 91
        0
 92
        0
 62
   257
 93
        1
300
CONTENTFORMAT
  1
CONTENTFORMAT_BEGIN
 90
        0
 91
        0
 92
      512
 93
        0
300

 40
0.0
140
1.0
 94
        5
 62
     0
340
5D
144
0.18
309
CONTENTFORMAT_END
171
     1
301
MARGIN
  1
CELLMARGIN_BEGIN
 40
0.06
 40
0.06
 40
0.06
 40
0.06
 40
0.18
 40
0.18
309
CELLMARGIN_END
 94
        6
 95
        1
302
GRIDFORMAT
  1
GRIDFORMAT_BEGIN
 90
        0
 91
        1
 62
     0
 92
       -2
340
0
 93
        0
 40
0.045
309
GRIDFORMAT_END
 95
        2
302
GRIDFORMAT
  1
GRIDFORMAT_BEGIN
 90
        0
 91
        1
 62
     0
 92
       -2
340
0
 93
        0
 40
0.045
309
GRIDFORMAT_END
 95
        4
302
GRIDFORMAT
  1
GRIDFORMAT_BEGIN
 90
        0
 91
        1
 62
     0
 92
       -2
340
0
 93
        0
 40
0.045
309
GRIDFORMAT_END
 95
        8
302
GRIDFORMAT
  1
GRIDFORMAT_BEGIN
 90
        0
 91
        1
 62
     0
 92
       -2
340
0
 93
        0
 40
0.045
309
GRIDFORMAT_END
 95
       16
302
GRIDFORMAT
  1
GRIDFORMAT_BEGIN
 90
        0
 91
        1
 62
     0
 92
       -2
340
0
 93
        0
 40
0.045
309
GRIDFORMAT_END
 95
       32
302
GRIDFORMAT
  1
GRIDFORMAT_BEGIN
 90
        0
 91
        1
 62
     0
 92
       -2
340
0
 93
        0
 40
0.045
309
GRIDFORMAT_END
309
TABLEFORMAT_END
  1
CELLSTYLE_BEGIN
 90
        2
 91
        1
300
_HEADER
309
CELLSTYLE_END
300
CELLSTYLE
  1
TABLEFORMAT_BEGIN
 90
        5
170
     1
 91
        0
 92
        0
 62
   257
 93
        1
300
CONTENTFORMAT
  1
CONTENTFORMAT_BEGIN
 90
        0
 91
        0
 92
      512
 93
        0
300

 40
0.0
140
1.0
 94
        2
 62
     0
340
5D
144
0.18
309
CONTENTFORMAT_END
171
     1
301
MARGIN
  1
CELLMARGIN_BEGIN
 40
0.06
 40
0.06
 40
0.06
 40
0.06
 40
0.18
 40
0.18
309
CELLMARGIN_END
 94
        6
 95
        1
302
GRIDFORMAT
  1
GRIDFORMAT_BEGIN
 90
        0
 91
        1
 62
     0
 92
       -2
340
0
 93
        0
 40
0.045
309
GRIDFORMAT_END
 95
        2
302
GRIDFORMAT
  1
GRIDFORMAT_BEGIN
 90
        0
 91
        1
 62
     0
 92
       -2
340
0
 93
        0
 40
0.045
309
GRIDFORMAT_END
 95
        4
302
GRIDFORMAT
  1
GRIDFORMAT_BEGIN
 90
        0
 91
        1
 62
     0
 92
       -2
340
0
 93
        0
 40
0.045
309
GRIDFORMAT_END
 95
        8
302
GRIDFORMAT
  1
GRIDFORMAT_BEGIN
 90
        0
 91
        1
 62
     0
 92
       -2
340
0
 93
        0
 40
0.045
309
GRIDFORMAT_END
 95
       16
302
GRIDFORMAT
  1
GRIDFORMAT_BEGIN
 90
        0
 91
        1
 62
     0
 92
       -2
340
0
 93
        0
 40
0.045
309
GRIDFORMAT_END
 95
       32
302
GRIDFORMAT
  1
GRIDFORMAT_BEGIN
 90
        0
 91
        1
 62
     0
 92
       -2
340
0
 93
        0
 40
0.045
309
GRIDFORMAT_END
309
TABLEFORMAT_END
  1
CELLSTYLE_BEGIN
 90
        3
 91
        2
300
_DATA
309
CELLSTYLE_END
  0
ENDSEC
  0
SECTION
  2
ACDSDATA
 70
     2
 71
     8
  0
ACDSSCHEMA
 90
        0
  1
AcDb_Thumbnail_Schema
  2
AcDbDs::ID
280
    10
 91
        8
  2
Thumbnail_Data
280
    15
 91
        0
101
ACDSRECORD
 95
        0
 90
        1
  2
AcDbDs::TreatedAsObjectData
280
     1
291
     1
101
ACDSRECORD
 95
        0
 90
        2
  2
AcDbDs::Legacy
280
     1
291
     1
101
ACDSRECORD
  1
AcDbDs::ID
 90
        3
  2
AcDs:Indexable
280
     1
291
     1
101
ACDSRECORD
  1
AcDbDs::ID
 90
        4
  2
AcDbDs::HandleAttribute
280
     7
282
     1
  0
ACDSSCHEMA
 90
        1
  1
AcDbDs::TreatedAsObjectDataSchema
  2
AcDbDs::TreatedAsObjectData
280
     1
 91
        0
  0
ACDSSCHEMA
 90
        2
  1
AcDbDs::LegacySchema
  2
AcDbDs::Legacy
280
     1
 91
        0
  0
ACDSSCHEMA
 90
        3
  1
AcDbDs::IndexedPropertySchema
  2
AcDs:Indexable
280
     1
 91
        0
  0
ACDSSCHEMA
 90
        4
  1
AcDbDs::HandleAttributeSchema
  2
AcDbDs::HandleAttribute
280
     7
 91
        1
284
     1
  0
ACDSRECORD
 90
        0
  2
AcDbDs::ID
280
    10
320
77
  2
Thumbnail_Data
280
    15
 94
     1687
310
89504E470D0A1A0A0000000D49484452000001000000007508030000009634CF9200000300504C5445000000000000C8C8C80000000000000000000000000000000000000000000000000000330000660000990000CC0000FF0033000033330033660033990033CC0033FF0066000066330066660066990066CC0066FF0099
310
000099330099660099990099CC0099FF00CC0000CC3300CC6600CC9900CCCC00CCFF00FF0000FF3300FF6600FF9900FFCC00FFFF3300003300333300663300993300CC3300FF3333003333333333663333993333CC3333FF3366003366333366663366993366CC3366FF3399003399333399663399993399CC3399FF33CC00
310
33CC3333CC6633CC9933CCCC33CCFF33FF0033FF3333FF6633FF9933FFCC33FFFF6600006600336600666600996600CC6600FF6633006633336633666633996633CC6633FF6666006666336666666666996666CC6666FF6699006699336699666699996699CC6699FF66CC0066CC3366CC6666CC9966CCCC66CCFF66FF0066
310
FF3366FF6666FF9966FFCC66FFFF9900009900339900669900999900CC9900FF9933009933339933669933999933CC9933FF9966009966339966669966999966CC9966FF9999009999339999669999999999CC9999FF99CC0099CC3399CC6699CC9999CCCC99CCFF99FF0099FF3399FF6699FF9999FFCC99FFFFCC0000CC00
310
33CC0066CC0099CC00CCCC00FFCC3300CC3333CC3366CC3399CC33CCCC33FFCC6600CC6633CC6666CC6699CC66CCCC66FFCC9900CC9933CC9966CC9999CC99CCCC99FFCCCC00CCCC33CCCC66CCCC99CCCCCCCCCCFFCCFF00CCFF33CCFF66CCFF99CCFFCCCCFFFFFF0000FF0033FF0066FF0099FF00CCFF00FFFF3300FF3333
310
FF3366FF3399FF33CCFF33FFFF6600FF6633FF6666FF6699FF66CCFF66FFFF9900FF9933FF9966FF9999FF99CCFF99FFFFCC00FFCC33FFCC66FFCC99FFCCCCFFCCFFFFFF00FFFF33FFFF66FFFF99FFFFCCFFFFFF0000000D0D0D1A1A1A2828283535354343435050505D5D5D6B6B6B787878868686939393A1A1A1AEAEAEBB
310
BBBBC9C9C9D6D6D6E4E4E4F1F1F1FFFFFF00000000000000000000000000000000000000000000000000000000000008F1915C0000011D4944415478DAEDD84B6EC320140550EF806D78C2FE37C33698D79FE04F4AAD0CAA4AE59DA328C1389377F3828DA70900000000000000000000007E47292562D9F36109E03C38CF95
310
637ED0001E66B79ACBDE19F31431800FBE2980FFBF00D426A563F80AA05ECD63FEFC4B91ED28A536AAF336D9CEAC9FC30670D67F09E0557A8C00A6A70072840EE8AD012D801A2A80ABBDF09A6B1E3F80D4A10342AE015BE16BED6700212E83F5B814EEE31A268065977774400BE0ED2F102780EE1A906FE63C6A00BD143A1D
310
300DBB063C5C0542049052CEF7BB8092827540CE6727AC83D2BD0F08F917881EC06D2F306A001F6F870530FA13A1B4BD7E7E2234EE1AF03D80D76480002E4F85D3F1D6DB1BD431030000000000000000000080BFF5059AE8C26F5036918D0000000049454E44AE426082F2002CEA884D5487A18CEC00F806B1ABEAA1400061
310
D5C3BE7EEF02E0F401D902C0CB0180A02DA068004DF76ADEEC039A1E810238033046B1BC386063701E3EA0E911F80034DF7EE2ADDEA6C960B59D2E00970F18536FDD8FE00F846C3C381D37124CDD0932BA80BF0560C640A3A1233EF801D43BD1F4E1DA59D9FDD1002C8672FEE12E61E513E886B100247CC01527084FFD70D3
310
55402A6713361CDEEDA1ED2CD82DB4EC012C7BB40D8E31CFA9C6DCFDD74E3103004D2F1E808557A745966BAAC8C2C27913C9FB007E0B707681B515B7E5039EF101C729B15D24580000C9892139022049290005A0007203204A003902E86FEC4F03AFEB73031A3426D2BDC11B5A40DD7EFE7DDAF653133B2A58FEC6469BC818
310
C05F677DDBB6EF05D00EBA0EE09B71883543E40E005336E6371F982B80831BC4FC29D04501982DBD08E02853F42B00B10BF5F94CD10023CB0330670585ECF7CF15AE911400925E27213E5BBC3000E1EB0562039096F88A916800725933F43C8087578D45021070E4C3EB060B0310BE72B42C00017180DBA5E60B2078F5B802
310
280D00290005A000B20260C6D74B017C8D3764F8040A03607AF3839EAA9926808BCF1334766D29B10838472F571FA8180B802B81BBB49F88DF06BCA3C18400B0869AB6E71B4BC14B60C82FA6096037E596F15459B3F84F876FE337019409007F56CC2C1227E3E43973C18864BA40E093A54DC05ECEAD05D1FC9A4AA552A954
310
2A954AA552A9542A954AA552BD4AFF0171BC5BB62EADF6AF0000000049454E44AE426082
  0
ENDSEC
  0
EOF
